Дневник Бриджет Джонс / Bridget Jones's Diary (Шэрон Магуайр / Sharon Maguire) [2001, Великобритания, Ирландия, США, Франция, мелодрама, комедия, DVB] [Fullscreen] Dub

DL-List and Torrent activity
Size:  2.19 GB   |    Registered:  2 years 9 months   |    Completed:  16 times
Seeders:  3   Leechers:  4   Show peers in full details
 
   
 
 

erzsebet.org ®

Longevity:
2 years 9 months
Posts:
47596

[Quote] 

Дневник Бриджет Джонс
Bridget Jones's Diary
Fullscreen Страна: Великобритания, Ирландия, США, Франция
Жанр: мелодрама, комедия
Год выпуска: 2001
Продолжительность: 01:32:01-Перевод: Профессиональный (дублированный)
Фильм дублирован компанией Творческое содружество Ист-Вест
при технической поддержке Тонстудии Мосфильм и Мосфильм-Колор
в 2001 году
Субтитры: нет
Оригинальная аудиодорожка: нет-Режиссер: Шэрон Магуайр / Sharon Maguire
В ролях: Рене Зеллвегер, Хью Грант, Колин Фёрт, Джемма Джонс, Джим Бродбент, Салли Филлипс, Ширли Хендерсон, Джеймс Кэллис, Эмбет Дэвидц, Патрик Барлоу, Фелисити Монтегю, Селия Имри, Онор Блэкман, Джеймс Фолкнер, Пол Брук-Описание: Бриджет Джонс решила, наконец, взять себя в руки и начать новую жизнь! И давно пора! Ей уже за тридцать, но она безвольно потакает своим вредным привычкам и не решается избавиться от лишних килограммов. Но, что самое главное, Бриджет — совсем одна. Родители пытаются сосватать ее за сына соседей, скромника Марка, а сама Бриджет без ума от своего неотразимого начальника Дэниэла! С первого дня новой жизни мисс Джонс решает вести дневник, в который она будет записывать свои будущие достижения и победы. Но оказалось, что осуществить мечты и найти истинную любовь гораздо сложней, чем это представлялось нашей прелестной героине…-Доп. информация: Fullscreen
DVB имеет иное наполнение кадра, чем BD
Финальные титры с двд
Сэмпл: минута53сек-Качество видео: DVB
Формат видео: MKV
Видео: AVC, 720х576, 4:3, 25,000 кадров/сек, 3141 Кбит/сек
Аудио: MP2, 48,0 КГц, 256 Кбит/сек, 2 канала (дубляж)

Сравнение с BD

MediaInfo

Общее
Уникальный идентификатор : 242491080213882342673456261296334986879 (0xB66E1550BA8C90BC815C7BC17E725E7F)
Полное имя : Дневник Бриджет Джонс.2001.mkv
Формат : Matroska
Версия формата : Version 4 / Version 2
Размер файла : 2,19 Гбайт
Продолжительность : 1 ч. 32 м.
Общий поток : 3401 Кбит/сек
Название фильма : Дневник Бриджет Джонс / Bridget Jones's Diary / 2001
Дата кодирования : UTC 2017-10-21 08:10:33
Программа кодирования : mkvmerge v8.3.0 ('Over the Horizon') 32bit
Библиотека кодирования : libebml v1.3.1 + libmatroska v1.4.2
Видео
Идентификатор : 1
Формат : AVC
Формат/Информация : Advanced Video Codec
Профиль формата : [email protected]
Настройки формата : CABAC / 3 Ref Frames
Параметр CABAC формата : Да
Параметр RefFrames формата : 3 кадра
Идентификатор кодека : V_MPEG4/ISO/AVC
Продолжительность : 1 ч. 32 м.
Битрейт : 3141 Кбит/сек
Ширина : 720 пикселей
Высота : 576 пикселей
Соотношение сторон : 4:3
Соотношение сторон в оригинале : 4:3
Режим частоты кадров : Переменный
Частота кадров : 25,623 кадров/сек
Частота кадров в оригинале : 25,000 кадров/сек
Стандарт вещания : Component
Цветовое пространство : YUV
Субдискретизация насыщенности : 4:2:0
Битовая глубина : 8 бит
Тип развёртки : Чересстрочная
Метод сохранения типа развёртки : Раздельные поля
Порядок развёртки : Верхнее поле первое
Бит/(Пиксели*Кадры) : 0.296
Размер потока : 2,02 Гбайт (92%)
Заголовок : Дневник Бриджет Джонс / Bridget Jones's Diary / 2001
Язык : English
Default : Да
Forced : Нет
Цветовой диапазон : Limited
Основные цвета : BT.601 PAL
Характеристики трансфера : BT.470 System B, BT.470 System G
Коэффициенты матрицы : BT.470 System B, BT.470 System G
Аудио
Идентификатор : 2
Формат : MPEG Audio
Версия формата : Version 1
Профиль формата : Layer 2
Идентификатор кодека : A_MPEG/L2
Идентификатор кодека/Подсказка : MP2
Продолжительность : 1 ч. 32 м.
Вид битрейта : Постоянный
Битрейт : 256 Кбит/сек
Каналы : 2 канала
Частота : 48,0 КГц
Частота кадров : 41,667 кадра/сек (1152 SPF)
Метод сжатия : С потерями
Размер потока : 168 Мбайт (8%)
Заголовок : дубляж
Язык : Russian
Default : Да
Forced : Нет

Скриншот c названием фильма

If your ratio falls below 0.3, you will not be able to download Torrents! More about the rating.

[erzsebet.pl].t893.torrent
Torrent: Registered   [ 2017-12-02 17:26 ]

Download .torrent

Download

11 KB

Status: checked
Completed: 16 times
Size: 2.19 GB
terms.php

#1

02-Dec-2017 17:26

[Profile]  [PM] 
Display posts:    

You cannot post new topics in this forum
You cannot reply to topics in this forum
You cannot edit your posts in this forum
You cannot delete your posts in this forum
You cannot vote in polls in this forum
You cannot attach files in this forum
You can download files in this forum
User agreement
For copyright holders
Advertise on this site

Скачайте на халяву через торрент на трекере erzsebet.pl

!ATTENTION!
The site does not give electronic versions of products, and is engaged only in a collecting and cataloguing of the references sent and published at a forum by our readers. If you are the legal owner of any submitted material and do not wish that the reference to it was in our catalogue, contact us and we shall immediately remove her. Files for an exchange on tracker are given by users of a site, and the administration does not bear the responsibility for their maintenance. The request to not fill in the files protected by copyrights, and also files of the illegal maintenance!