Вечное сияние чистого разума / Eternal Sunshine of the Spotless Mind (Мишель Гондри / Michel Gondry) [2004, США, романтическая драма, HDRip] DVO (SDI Media)

DL-List and Torrent activity
Size:  1.46 GB   |    Registered:  2 years 9 months   |    Completed:  16 times
Seeders:  4   Leechers:  1   Show peers in full details
 
   
 
 

erzsebet.org ®

Longevity:
2 years 9 months
Posts:
47596

[Quote] 

Вечное сияние чистого разума |Eternal Sunshine of the Spotless Mind«Можно стереть любовь из памяти. Выкинуть из сердца - это уже другая история»
Страна: США
Студия: Focus Features, Anonymous Content, This Is That Productions
Жанр: романтическая драма
Год выпуска: 2004
Продолжительность: 01:47:48-Перевод: Профессиональный (двухголосый закадровый) SDI Media | 2013г.*
Субтитры: нет
Оригинальная аудиодорожка: нет-Режиссер: Мишель Гондри / Michel Gondry
В ролях: Джим Керри, Кейт Уинслет, Элайджа Вуд, Марк Руффало, Том Уилкинсон, Кирстен Данст, Томас Джей Райан, Джейн Адамс, Дэвид Кросс, Джерри Роберт Бирн-Описание: В будущем избавиться от проблем будет легко: можно будет стереть из памяти все неприятности... Однажды Джоэль в шоке обнаруживает, что его подружка Клементина, отношения с которой никак не ладились, в отчаянии пошла на такой шаг. Теперь она не помнит ничего из их общей жизни! Полный решимости, Джоэль заключает такой же контракт с доктором Говардом и его командой, но чем меньше Джоэль помнит, тем больше любит, тем больше не хочет забывать Клементину и их роман. Пока еще не поздно, он должен победить ненавистный компьютерный мозг. Но возможно ли остановить безумный опыт безумных учёных?

*Собственная запись со спутника Eutelsat 36A/36B (36°E) | TV1000 Megahit HD (эфир 11.09.2017г.)
Качество видео: HDRip Eternal.Sunshine.of.the.Spotless.Mind.2004.720p.BluRay.x264.DTS.AC3.3Audio.RoSubbed-HDWinG
Формат видео: AVI
Видео: MPEG-4 Visual / 720x384 (1,85:1) / 23,976 fps / XviD build 73 ~1710 kbps avg / 0.258 bit/pixel
Аудио: Russian | Dolby Digital Audio / 48 kHz / 2.0 Ch / 224 kbps / 16-bit | DVO | SDI Media | 2013г.*

MediaInfo

Код:Общее
Полное имя : N:\BDRip\Eternal Sunshine of the Spotless Mind.2004.HDRip.DVO.XviD.DD.2.0.avi
Формат : AVI
Формат/Информация : Audio Video Interleave
Размер файла : 1,46 Гбайт
Продолжительность : 1 ч. 47 м.
Общий поток : 1943 Кбит/сек
Программа кодирования : VirtualDubMod 1.5.10.3 | www.virtualdub-fr.org || (build 2550/release)
Библиотека кодирования : VirtualDubMod build 2550/release
Видео
Идентификатор : 0
Формат : MPEG-4 Visual
Профиль формата : Advanced [email protected]
Настройки формата : BVOP1 / Custom Matrix
Параметр BVOP формата : 1
Параметр QPel формата : Нет
Параметр GMC формата : Без точки перехода
Параметр матрицы формата : Выборочная
Идентификатор кодека : XVID
Идентификатор кодека/Подсказка : XviD
Продолжительность : 1 ч. 47 м.
Битрейт : 1710 Кбит/сек
Ширина : 720 пикселей
Высота : 384 пикселя
Соотношение сторон : 1,85:1
Частота кадров : 23,976 (24000/1001) кадра/сек
Цветовое пространство : YUV
Субдискретизация насыщенности : 4:2:0
Битовая глубина : 8 бит
Тип развёртки : Прогрессивная
Метод сжатия : С потерями
Бит/(Пиксели*Кадры) : 0.258
Размер потока : 1,29 Гбайт (88%)
Библиотека кодирования : XviD 73
Аудио
Идентификатор : 1
Формат : AC-3
Формат/Информация : Audio Coding 3
Параметр Endianness формата : Big
Идентификатор кодека : 2000
Продолжительность : 1 ч. 47 м.
Вид битрейта : Постоянный
Битрейт : 224 Кбит/сек
Каналы : 2 канала
Расположение каналов : Front: L R
Частота : 48,0 КГц
Частота кадров : 31,250 кадров/сек (1536 SPF)
Битовая глубина : 16 бит
Метод сжатия : С потерями
Размер потока : 172 Мбайт (12%)
Выравнивание : Разделение по промежуткам
Продолжительность промежутка : 42 мс. (1,00 видеокадр)
Время предзагрузки промежутка : 500 мс.
Заголовок : DVO | SDI Media
ServiceKind/String : Complete Main

If your ratio falls below 0.3, you will not be able to download Torrents! More about the rating.

[erzsebet.pl].t906.torrent
Torrent: Registered   [ 2017-12-02 17:26 ]

Download .torrent

Download

15 KB

Status: checked
Completed: 16 times
Size: 1.46 GB
terms.php

#1

02-Dec-2017 17:26

[Profile]  [PM] 
Display posts:    

You cannot post new topics in this forum
You cannot reply to topics in this forum
You cannot edit your posts in this forum
You cannot delete your posts in this forum
You cannot vote in polls in this forum
You cannot attach files in this forum
You can download files in this forum
User agreement
For copyright holders
Advertise on this site

Скачайте на халяву через торрент на трекере erzsebet.pl

!ATTENTION!
The site does not give electronic versions of products, and is engaged only in a collecting and cataloguing of the references sent and published at a forum by our readers. If you are the legal owner of any submitted material and do not wish that the reference to it was in our catalogue, contact us and we shall immediately remove her. Files for an exchange on tracker are given by users of a site, and the administration does not bear the responsibility for their maintenance. The request to not fill in the files protected by copyrights, and also files of the illegal maintenance!