Таинственная река / Mystic River (Клинт Иствуд / Clint Eastwood) [2003, США, Австралия, триллер, криминал, детектив, BDRip] AVO (Андрей Гаврилов) + AVO (Юрий Сербин)

DL-List and Torrent activity
Size:  2.19 GB   |    Registered:  2 years 9 months   |    Completed:  16 times
Seeders:  11   Leechers:  1   Show peers in full details
 
   
 
 

erzsebet.org ®

Longevity:
2 years 9 months
Posts:
47596

[Quote] 

Таинственная река / Mystic River
Страна: США, Австралия
Жанр: триллер, криминал, детектив
Год выпуска: 2003
Продолжительность: 02:17:56
Перевод: Авторский (одноголосый закадровый) Андрей Гаврилов
Перевод 2: Авторский (одноголосый закадровый) Юрий Сербин
Субтитры: нет
Режиссер: Клинт Иствуд / Clint Eastwood
В ролях: Шон Пенн, Тим Роббинс, Кевин Бэйкон, Лоуренс Фишборн, Марша Гей Харден, Лора Линни, Кевин Чэпмен, Том Гайри, Эмми Россум
Описание: Шон Девин, Джимми Маркум и Дейвид Бойл – неразлучные приятели с самого детства. Они часто играют в хоккей, вместе взрослеют на неспокойных улицах Бостона. Когда они стали взрослыми мужчинами, судьба столкнула их перед лицом трагедии: Кэтти, дочь Джимми Маркума, зверски убивают. Для Джимми, успешного мошенника в далёком прошлом, а в настоящем – владельца бакалейной лавки, месть становится главной целью жизни. Полицейский, которому поручили расследование этого дела – Шон Девин, уверенный в том, что виновником убийства стал Дейв Бойл. Чем закончится эта запутанная и непростая история..?
Сэмпл: http://multi-up.com/1171422
Качество видео: BDRip (Исходник Таинственная река.BDRemux..mkv)
Формат видео: AVI
Видео: XviD 73, 720x304, (2,35:1), 23,976 fps, 1870 Кбит/с, 8 бит
Аудио: Русский (АС3, 2 ch (Front: L R), 48,0 KHz, 192 Kbps)
Аудио 2: Русский (АС3, 2 ch (Front: L R), 48,0 KHz, 192 Kbps)

MediaInfo

Общее
Полное имя : D:\Видеофильмы\В и д е о\Таинственная река (триллер, драма, криминал, детектив 2003 год).avi
Формат : AVI
Формат/Информация : Audio Video Interleave
Профиль формата : OpenDML
Размер файла : 2,19 Гбайт
Продолжительность : 2 ч. 17 м.
Общий поток : 2272 Кбит/сек
Программа кодирования : VirtualDubMod 1.5.10.2 (build 2540/release)
Библиотека кодирования : VirtualDubMod build 2540/release
Видео
Идентификатор : 0
Формат : MPEG-4 Visual
Профиль формата : Advanced [email protected]
Параметр BVOP формата : 1
Параметр QPel формата : Нет
Параметр GMC формата : Без точки перехода
Параметр матрицы формата : Выборочная
Идентификатор кодека : XVID
Идентификатор кодека/Подсказка : XviD
Продолжительность : 2 ч. 17 м.
Битрейт : 1870 Кбит/сек
Ширина : 720 пикселей
Высота : 304 пикселя
Соотношение сторон : 2,35:1
Частота кадров : 23,976 (23976/1000) кадра/сек
Цветовое пространство : YUV
Субдискретизация насыщенности : 4:2:0
Битовая глубина : 8 бит
Тип развёртки : Прогрессивная
Метод сжатия : С потерями
Бит/(Пиксели*Кадры) : 0.356
Размер потока : 1,80 Гбайт (82%)
Библиотека кодирования : XviD 73
Аудио #1
Идентификатор : 1
Формат : AC-3
Формат/Информация : Audio Coding 3
Расширение режима : CM (complete main)
Параметр Endianness формата : Big
Идентификатор кодека : 2000
Продолжительность : 2 ч. 17 м.
Вид битрейта : Постоянный
Битрейт : 192 Кбит/сек
Каналы : 2 канала
Расположение каналов : Front: L R
Частота : 48,0 КГц
Частота кадров : 31,250 кадров/сек (1536 spf)
Метод сжатия : С потерями
Размер потока : 189 Мбайт (8%)
Выравнивание : Разделение по промежуткам
Продолжительность промежутка : 42 мс. (1,00 видеокадр)
Время предзагрузки промежутка : 500 мс.
Аудио #2
Идентификатор : 2
Формат : AC-3
Формат/Информация : Audio Coding 3
Расширение режима : CM (complete main)
Параметр Endianness формата : Big
Идентификатор кодека : 2000
Продолжительность : 2 ч. 17 м.
Вид битрейта : Постоянный
Битрейт : 192 Кбит/сек
Каналы : 2 канала
Расположение каналов : Front: L R
Частота : 48,0 КГц
Частота кадров : 31,250 кадров/сек (1536 spf)
Метод сжатия : С потерями
Размер потока : 189 Мбайт (8%)
Выравнивание : Разделение по промежуткам
Продолжительность промежутка : 42 мс. (1,00 видеокадр)
Время предзагрузки промежутка : 500 мс.

Скриншот c названием фильма

Скриншоты

If your ratio falls below 0.3, you will not be able to download Torrents! More about the rating.

[erzsebet.pl].t908.torrent
Torrent: Registered   [ 2017-12-02 17:26 ]

Download .torrent

Download

11 KB

Status: checked
Completed: 16 times
Size: 2.19 GB
terms.php

#1

02-Dec-2017 17:26

[Profile]  [PM] 
Display posts:    

You cannot post new topics in this forum
You cannot reply to topics in this forum
You cannot edit your posts in this forum
You cannot delete your posts in this forum
You cannot vote in polls in this forum
You cannot attach files in this forum
You can download files in this forum
User agreement
For copyright holders
Advertise on this site

Скачайте на халяву через торрент на трекере erzsebet.pl

!ATTENTION!
The site does not give electronic versions of products, and is engaged only in a collecting and cataloguing of the references sent and published at a forum by our readers. If you are the legal owner of any submitted material and do not wish that the reference to it was in our catalogue, contact us and we shall immediately remove her. Files for an exchange on tracker are given by users of a site, and the administration does not bear the responsibility for their maintenance. The request to not fill in the files protected by copyrights, and also files of the illegal maintenance!