Клуб Коттон / The Cotton Club (Фрэнсис Форд Коппола / Francis Ford Coppola) [1984, США, драма, криминал, музыка, BDRip-AVC] VO + 4x AVO + Sub Eng, Rus + Original Eng

DL-List and Torrent activity
Size:  3.83 GB   |    Registered:  2 years 9 months   |    Completed:  16 times
Seeders:  9   Leechers:  1   Show peers in full details
 
   
 
 

erzsebet.org ®

Longevity:
2 years 9 months
Posts:
47596

[Quote] 

Клуб Коттон / The Cotton Club
Страна: США
Жанр: драма, криминал, музыка
Год выпуска: 1984
Продолжительность: 2:09:07
Перевод 1: Одноголосый закадровый неизвестного
Перевод 2: Авторский (одноголосый закадровый) Алексея Михалева
Перевод 3: Авторский (одноголосый закадровый) Вартана Дохалова
Перевод 4: Авторский (одноголосый закадровый) Юрия Живова
Перевод 5: Авторский (одноголосый закадровый) Андрея Гаврилова
Субтитры: английские, русские
Оригинальная аудиодорожка: английский
Режиссер: Фрэнсис Форд Коппола /Francis Ford Coppola/
В ролях: Ричард Гир /Richard Gere/, Грегори Хайнс /Gregory Hines/, Дайэн Лэйн /Diane Lane/, Лонетт МакКи /Lonette McKee/, Боб Хоскинс /Bob Hoskins/, Николас Кейдж /Nicolas Cage/, Джеймс Ремар /James Remar/, Аллен Гарфилд /Allen Garfield/, Фред Гуинн /Fred Gwynne/, Гуэн Вердон /Gwen Verdon/, Морис Хайнс /Maurice Hines/, Джо Даллесандро /Joe Dallesandro/, Джулиан Бек /Julian Beck/, Дженнифер Грей /Jennifer Grey/, Лоуренс Фишберн /Laurence Fishburne/, Том Уэйтс /Tom Waits/...
Рецензия Михаила Иванова: Ностальгический и стильный фильм о ярких временах "сухого закона": гангстеры, шикарные девочки, виртуозные чечеточники, словом, весь букет ночной жизни Гарлема 20-х годов с чудесной музыкой Дюка Эллингтона. Между прочим Гир сам играет на кларнете. Есть, конечно, и сюжет, более менее связывающий все это волшебство воедино.
Доп. информация: исходник от den095; древнюю panasonic-e180 оцифровал и дорогу "неизвестного" подготовил karlll, и конечно СПАСИБО! всем коллекционерам, цифровальщикам и синхронизаторам, которые сохранили и подготовили все остальные авторские переводы
Качество видео: BDRip-AVC ~Сэмпл~
Формат видео: MKV
Видео: MPEG4 (H264) 1152x624 23.976fps 2586Kbps
Аудио 1: AC3 48KHz 2ch 192Kbps - "неизвестный"
Аудио 2: AC3 48KHz 2ch 192Kbps - Михалёв
Аудио 3: AC3 48KHz 2ch 192Kbps - анг- Аудио 4: AC3 48KHz 2ch 192Kbps - Дохалов
Аудио 5: AC3 48KHz 6ch 448Kbps - Живов
Аудио 6: AC3 48KHz 6ch 448Kbps - Гаврилов
Формат субтитров: softsub (SRT)

MediaInfo

Формат : Matroska
Версия формата : Version 2
Размер файла : 2,85 Гбайт
Продолжительность : 2 ч. 9 м.
Общий поток : 3164 Кбит/сек
Дата кодирования : UTC 2017-11-10 15:30:41
Программа кодирования : mkvmerge v6.9.1 ('Blue Panther') 32bit built on Apr 18 2014 18:15:44
Библиотека кодирования : libebml v1.3.0 + libmatroska v1.4.1
Видео
Идентификатор : 1
Формат : AVC
Формат/Информация : Advanced Video Codec
Профиль формата : [email protected]
Параметр CABAC формата : Да
Параметр ReFrames формата : 7 кадров
Идентификатор кодека : V_MPEG4/ISO/AVC
Продолжительность : 2 ч. 9 м.
Битрейт : 2586 Кбит/сек
Ширина : 1152 пикселя
Высота : 624 пикселя
Соотношение сторон : 1,85:1
Режим частоты кадров : Постоянный
Частота кадров : 23,976 кадра/сек
Цветовое пространство : YUV
Субдискретизация насыщенности : 4:2:0
Битовая глубина : 8 бит
Тип развёртки : Прогрессивная
Бит/(Пиксели*Кадры) : 0.150
Размер потока : 2,28 Гбайт (80%)
Заголовок : The Cotton Club (1984)
Библиотека кодирования : x264 core 148 r2638 7599210
Настройки программы : cabac=1 / ref=7 / deblock=1:-1:-1 / analyse=0x3:0x113 / me=umh / subme=9 / psy=1 / psy_rd=1.00:0.20 / mixed_ref=1 / me_range=24 / chroma_me=1 / trellis=2 / 8x8dct=1 / cqm=0 / deadzone=21,11 / fast_pskip=0 / chroma_qp_offset=-3 / threads=6 / lookahead_threads=1 / sliced_threads=0 / nr=0 / decimate=0 / interlaced=0 / bluray_compat=0 / constrained_intra=0 / bframes=7 / b_pyramid=2 / b_adapt=2 / b_bias=0 / direct=3 / weightb=1 / open_gop=0 / weightp=2 / keyint=250 / keyint_min=23 / scenecut=40 / intra_refresh=0 / rc_lookahead=50 / rc=2pass / mbtree=1 / bitrate=2586 / ratetol=1.0 / qcomp=0.60 / qpmin=0 / qpmax=69 / qpstep=4 / cplxblur=20.0 / qblur=0.5 / vbv_maxrate=14000 / vbv_bufsize=14000 / nal_hrd=none / filler=0 / ip_ratio=1.40 / aq=1:1.00
Язык : English
Default : Да
Forced : Нет
Аудио #1
Идентификатор : 2
Формат : AC-3
Формат/Информация : Audio Coding 3
Расширение режима : CM (complete main)
Параметр Endianness формата : Big
Идентификатор кодека : A_AC3
Продолжительность : 2 ч. 9 м.
Вид битрейта : Постоянный
Битрейт : 192 Кбит/сек
Каналы : 2 канала
Расположение каналов : Front: L R
Частота : 48,0 КГц
Битовая глубина : 16 бит
Метод сжатия : С потерями
Размер потока : 177 Мбайт (6%)
Заголовок : Neizvestniy
Язык : Russian
Default : Да
Forced : Нет
Аудио #2
Идентификатор : 3
Формат : AC-3
Формат/Информация : Audio Coding 3
Расширение режима : CM (complete main)
Параметр Endianness формата : Big
Идентификатор кодека : A_AC3
Продолжительность : 2 ч. 9 м.
Вид битрейта : Постоянный
Битрейт : 192 Кбит/сек
Каналы : 2 канала
Расположение каналов : Front: L R
Частота : 48,0 КГц
Битовая глубина : 16 бит
Метод сжатия : С потерями
Размер потока : 177 Мбайт (6%)
Заголовок : Mihalev
Язык : Russian
Default : Нет
Forced : Нет
Аудио #3
Идентификатор : 4
Формат : AC-3
Формат/Информация : Audio Coding 3
Расширение режима : CM (complete main)
Параметр Endianness формата : Big
Идентификатор кодека : A_AC3
Продолжительность : 2 ч. 9 м.
Вид битрейта : Постоянный
Битрейт : 192 Кбит/сек
Каналы : 2 канала
Расположение каналов : Front: L R
Частота : 48,0 КГц
Битовая глубина : 16 бит
Метод сжатия : С потерями
Размер потока : 177 Мбайт (6%)
Заголовок : english
Язык : English
Default : Нет
Forced : Нет
Текст #1
Идентификатор : 5
Формат : UTF-8
Идентификатор кодека : S_TEXT/UTF8
Идентификатор кодека/Информация : UTF-8 Plain Text
Заголовок : english
Язык : English
Default : Нет
Forced : Нет
Текст #2
Идентификатор : 6
Формат : UTF-8
Идентификатор кодека : S_TEXT/UTF8
Идентификатор кодека/Информация : UTF-8 Plain Text
Заголовок : russian
Язык : Russian
Default : Нет
Forced : Нет
Меню
00:00:00.000 : en:Chapter 1
00:03:25.663 : en:Chapter 2
00:08:15.870 : en:Chapter 3
00:10:06.105 : en:Chapter 4
00:14:42.047 : en:Chapter 5
00:16:22.314 : en:Chapter 6
00:22:08.994 : en:Chapter 7
00:24:44.649 : en:Chapter 8
00:26:09.109 : en:Chapter 9
00:28:14.693 : en:Chapter 10
00:34:14.427 : en:Chapter 11
00:38:41.902 : en:Chapter 12
00:42:39.557 : en:Chapter 13
00:45:29.601 : en:Chapter 14
00:49:51.321 : en:Chapter 15
00:54:27.597 : en:Chapter 16
00:58:02.770 : en:Chapter 17
01:02:34.167 : en:Chapter 18
01:03:44.111 : en:Chapter 19
01:07:35.051 : en:Chapter 20
01:10:35.731 : en:Chapter 21
01:14:43.187 : en:Chapter 22
01:17:47.162 : en:Chapter 23
01:21:18.206 : en:Chapter 24
01:24:52.045 : en:Chapter 25
01:28:04.404 : en:Chapter 26
01:33:50.875 : en:Chapter 27
01:35:09.286 : en:Chapter 28
01:47:58.805 : en:Chapter 29
01:52:56.686 : en:Chapter 30
01:58:26.224 : en:Chapter 31
02:03:30.820 : en:Chapter 32
02:09:05.237 : en:Chapter 33

Скриншоты

If your ratio falls below 0.3, you will not be able to download Torrents! More about the rating.

[erzsebet.pl].t91.torrent
Torrent: Registered   [ 2017-12-02 16:06 ]

Download .torrent

Download

20 KB

Status: checked
Completed: 16 times
Size: 3.83 GB
terms.php

#1

02-Dec-2017 16:06

[Profile]  [PM] 
Display posts:    

You cannot post new topics in this forum
You cannot reply to topics in this forum
You cannot edit your posts in this forum
You cannot delete your posts in this forum
You cannot vote in polls in this forum
You cannot attach files in this forum
You can download files in this forum
User agreement
For copyright holders
Advertise on this site

Скачайте на халяву через торрент на трекере erzsebet.pl

!ATTENTION!
The site does not give electronic versions of products, and is engaged only in a collecting and cataloguing of the references sent and published at a forum by our readers. If you are the legal owner of any submitted material and do not wish that the reference to it was in our catalogue, contact us and we shall immediately remove her. Files for an exchange on tracker are given by users of a site, and the administration does not bear the responsibility for their maintenance. The request to not fill in the files protected by copyrights, and also files of the illegal maintenance!