Дети шпионов / Spy Kids (Роберт Родригес / Robert Rodriguez) [2001, США, фантастика, боевик, комедия, приключения, семейный, BDRip] [Unrated] MVO (Первый канал)

DL-List and Torrent activity
Size:  1.35 GB   |    Registered:  2 years 9 months   |    Completed:  16 times
Seeders:  7  
 
   
 
 

erzsebet.org ®

Longevity:
2 years 9 months
Posts:
47596

[Quote] 

Дети шпионов / Spy Kids / Unrated-Никогда не доверяй взрослому то, что может сделать ребёнок
- Год выпуска: 2001
Страна: США
Жанр: фантастика, боевик, комедия, приключения, семейный
Продолжительность: 01:30:50
Перевод: Профессиональный (многоголосый закадровый) - Первый канал
Субтитры: нет
Режиссер: Роберт Родригес / Robert Rodriguez
В ролях: Антонио Бандерас / Gregorio Cortez, Карла Гуджино / Ingrid Cortez, Алан Камминг / Fegan Floop, Тери Хэтчер / Ms. Gradenko, Чич Марин / Felix Gumm, Дэнни Трехо / Machete, Роберт Патрик / Mr. Lisp, Тони Шэлуб / Alexander Minion, Алекса Вега / Carmen Cortez, Дэрил Сабара / Juni Cortez-Мировая премьера: 18 марта 2001-Описание: Два самых крутых шпиона Грегорио Кортес и Ингрид получили одно и то же секретное задание - убить друг друга. Но их встреча закончилась счастливым браком. Они завязали со своим ремеслом, и у них родились двое детей, девочка и мальчик. Тем временем некий ученый, мистер Флуп, создал искусственных суперагентов в виде мальчика и девочки, которых он назвал "дети шпионов". Через несколько лет исчезновение семерых спецагентов вынуждает Кортесов снова вернуться в игру. Их бывшие коллеги исчезали один за другим, но никакого выкупа или других требований похитители не предъявляли. Кортесы должны раскрыть секрет мистера Флупа и заняться исчезновением агентов. Супруги выехали на задание, но попались в ловушку и оказались в руках Флупа. Теперь судьба пленников зависит от того, смогут ли их дети, Кармен и Джуни, правильно распорядиться всеми новейшими сверхсекретными шпионскими штучками из арсенала легендарных родителей...-Огромная благодарность:
kingsize87 - видеоряд.
alenavova - личная запись фильма с Первого канала через видеомагнитофон и оцифровка звука с видеокассеты.
JUSTKANT - синхронизация перевода.-Данный перевод на трекере появляется впервые.-На русский язык фильм озвучен по заказу Первого канала.
Текст читают Сергей Быстрицкий, Игорь Тарадайкин, Наталья Казначеева, Наталья Гурзо и Светлана Старикова.-
Рейтинг

MPAA: PG - Рекомендуется присутствие родителей.-Качество видео: BDRip
Формат видео: AVI -> //Сэмпл//
Видео: XviD, 704x384 (1.85:1), 23.976 fps, 1894 kbps
Аудио:
1 - 48 khz, AC3 Dolby Digital, 2/0 (L,R) ch, ~224 kbps [Первый канал] VHSRip-ТВ

Информация о переводе

В переводе вставки многоголосого перевода в двух расширенных эпизодах:
00:20:28 - 00:20:43
00:59:44 - 01:02:43

MediaInfo

General
Complete name : D:\Дети шпионов (Первый канал).avi
Format : AVI
Format/Info : Audio Video Interleave
File size : 1.35 GiB
Duration : 1 h 30 min
Overall bit rate : 2 128 kb/s
Movie name : Дети шпионов / Spy Kids / Unrated Version (Первый канал)
Director : JUSTKANT
Writing application : VirtualDubMod 1.5.10.3 (build 2550/release)
Copyright : На русский язык фильм озвучен по заказу Первого канала
Comment : Качество звука: VHSRip-ТВ (alenavova)
Video
ID : 0
Format : MPEG-4 Visual
Format profile : Advanced [email protected]
Format settings, BVOP : 1
Format settings, QPel : No
Format settings, GMC : No warppoints
Format settings, Matrix : Custom
Codec ID : XVID
Codec ID/Hint : XviD
Duration : 1 h 30 min
Bit rate : 1 894 kb/s
Width : 704 pixels
Height : 384 pixels
Display aspect ratio : 1.85:1
Frame rate : 23.976 (24000/1001) FPS
Color space : YUV
Chroma subsampling : 4:2:0
Bit depth : 8 bits
Scan type : Progressive
Compression mode : Lossy
Bits/(Pixel*Frame) : 0.292
Stream size : 1.20 GiB (89%)
Writing library : XviD 64
Audio
ID : 1
Format : AC-3
Format/Info : Audio Coding 3
Format settings, Endianness : Big
Codec ID : 2000
Duration : 1 h 30 min
Bit rate mode : Constant
Bit rate : 224 kb/s
Channel(s) : 2 channels
Channel positions : Front: L R
Sampling rate : 48.0 kHz
Frame rate : 31.250 FPS (1536 SPF)
Bit depth : 16 bits
Compression mode : Lossy
Stream size : 146 MiB (11%)
Alignment : Split accross interleaves
Interleave, duration : 42 ms (1.00 video frame)
Interleave, preload duratio : 500 ms
Title : Первый канал: Сергей Быстрицкий, Игорь Тарадайкин, Наталья Казначеева, Наталья Гурзо и Светлана Старикова
Service kind : Complete Main

Скриншот c названием фильма

Скриншоты

If your ratio falls below 0.3, you will not be able to download Torrents! More about the rating.

[erzsebet.pl].t916.torrent
Torrent: Registered   [ 2017-12-02 17:26 ]

Download .torrent

Download

14 KB

Status: checked
Completed: 16 times
Size: 1.35 GB
terms.php

#1

02-Dec-2017 17:25

[Profile]  [PM] 
Display posts:    

You cannot post new topics in this forum
You cannot reply to topics in this forum
You cannot edit your posts in this forum
You cannot delete your posts in this forum
You cannot vote in polls in this forum
You cannot attach files in this forum
You can download files in this forum
User agreement
For copyright holders
Advertise on this site

Скачайте на халяву через торрент на трекере erzsebet.pl

!ATTENTION!
The site does not give electronic versions of products, and is engaged only in a collecting and cataloguing of the references sent and published at a forum by our readers. If you are the legal owner of any submitted material and do not wish that the reference to it was in our catalogue, contact us and we shall immediately remove her. Files for an exchange on tracker are given by users of a site, and the administration does not bear the responsibility for their maintenance. The request to not fill in the files protected by copyrights, and also files of the illegal maintenance!