Две ночи с Клеопатрой / Ночи с Клеопатрой / Due notti con Cleopatra (Марио Маттоли / Mario Mattoli) [1954, Италия, комедия, DVDRip] [Полная итальянская версия] DVO + Sub Rus + Original Ita

DL-List and Torrent activity
Size:  1.39 GB   |    Registered:  2 years 9 months   |    Completed:  16 times
Seeders:  9   Leechers:  1   Show peers in full details
 
   
 
 

erzsebet.org ®

Longevity:
2 years 9 months
Posts:
47596

[Quote] 

Две ночи с Клеопатрой / Ночи с Клеопатрой / Due notti con Cleopatra / Полная итальянская версия
Страна: Италия
Жанр: комедия
Год выпуска: 1954
Продолжительность: 01:15:35
Перевод: Профессиональный (двухголосый закадровый)
Субтитры: русские
Оригинальная аудиодорожка: итальянский
Режиссер: Марио Маттоли / Mario Mattoli
В ролях: Софи Лорен, Альберто Сорди, Пауль Мюллер, Нандо Бруно, Этторе Манни, Альберто Талегалли, Джанни Кавальери, Ральф Тасна, Уго Д'Алессио
Описание: Клеопатра - весьма красивая женщина, но имеет один маленький недостаток: когда офицер охраны, проводит с ней ночь любви, то сразу после этого его отравляют, потому что Марк Антоний об этом не должен ничего знать. Цезарь - новый офицер, еще не в курсе этого небольшого порока Клеопатры, и сразу же соглашается быть охранником у царицы. Но первую ночь, однако, он проводит не с царицей, а с рабыней, её двойником, которую нашли, чтобы Клеопатра тайно встретилась с Марком Антонием. Но, после первой ночи настоящая Клеопатра вернулась обратно...
Доп. информация: Релиз
Раздачи французской версии http://erzsebet.org/forum/tracker.php?nm=%D0%BD%D0%BE%D1%87%D0%B8%20%D1%81%20%D0...1%80%D0%BE%D0%B9
Сэмпл: http://multi-up.com/1175741
Качество видео: DVDRip
Формат видео: AVI
Видео: 608x464 (1.31:1), 25 fps, XviD MPEG-4, 2241 kbps avg, 0.32 bit/pixel
Аудио: Русский AC3 Dolby Digital, 2/0 (L,R) ch, 48 kHz, 192 kbps
Аудио 2: Итальянский AC3 Dolby Digital, 2/0 (L,R) ch, 48 kHz, 192 kbps
Формат субтитров: hardsub (неотключаемые)
Доп. информация о субтитрах: На вырезанное

MediaInfo

Общее
Полное имя : F:\DUE NOTTI CON CLEOPATRA.Ru.avi
Формат : AVI
Формат/Информация : Audio Video Interleave
Размер файла : 1,39 Гбайт
Продолжительность : 1 ч. 15 м.
Общий поток : 2641 Кбит/сек
Программа кодирования : VirtualDubMod 1.5.10.2 (build 2540/release)
Библиотека кодирования : VirtualDubMod build 2540/release
Видео
Идентификатор : 0
Формат : MPEG-4 Visual
Профиль формата : Advanced [email protected]
Параметр BVOP формата : 1
Параметр QPel формата : Нет
Параметр GMC формата : Без точки перехода
Параметр матрицы формата : Выборочная
Идентификатор кодека : XVID
Идентификатор кодека/Подсказка : XviD
Продолжительность : 1 ч. 15 м.
Битрейт : 2242 Кбит/сек
Ширина : 608 пикселей
Высота : 464 пикселя
Соотношение сторон : 4:3
Частота кадров : 25,000 кадров/сек
Цветовое пространство : YUV
Субдискретизация насыщенности : 4:2:0
Битовая глубина : 8 бит
Тип развёртки : Прогрессивная
Метод сжатия : С потерями
Бит/(Пиксели*Кадры) : 0.318
Размер потока : 1,18 Гбайт (85%)
Библиотека кодирования : XviD 64
Аудио #1
Идентификатор : 1
Формат : AC-3
Формат/Информация : Audio Coding 3
Расширение режима : CM (complete main)
Параметр Endianness формата : Big
Идентификатор кодека : 2000
Продолжительность : 1 ч. 15 м.
Вид битрейта : Постоянный
Битрейт : 192 Кбит/сек
Каналы : 2 канала
Расположение каналов : Front: L R
Частота : 48,0 КГц
Частота кадров : 31,250 кадров/сек (1536 spf)
Метод сжатия : С потерями
Размер потока : 104 Мбайт (7%)
Выравнивание : Разделение по промежуткам
Продолжительность промежутка : 40 мс. (1,00 видеокадр)
Время предзагрузки промежутка : 500 мс.
Язык : Russian
Аудио #2
Идентификатор : 2
Формат : AC-3
Формат/Информация : Audio Coding 3
Расширение режима : CM (complete main)
Параметр Endianness формата : Big
Идентификатор кодека : 2000
Продолжительность : 1 ч. 15 м.
Вид битрейта : Постоянный
Битрейт : 192 Кбит/сек
Каналы : 2 канала
Расположение каналов : Front: L R
Частота : 48,0 КГц
Частота кадров : 31,250 кадров/сек (1536 spf)
Метод сжатия : С потерями
Размер потока : 104 Мбайт (7%)
Выравнивание : Разделение по промежуткам
Продолжительность промежутка : 40 мс. (1,00 видеокадр)
Время предзагрузки промежутка : 500 мс.
Язык : Italiano

Скриншот c названием фильма

Скриншоты

If your ratio falls below 0.3, you will not be able to download Torrents! More about the rating.

[erzsebet.pl].t92.torrent
Torrent: Registered   [ 2017-12-02 16:06 ]

Download .torrent

Download

14 KB

Status: checked
Completed: 16 times
Size: 1.39 GB
terms.php

#1

02-Dec-2017 16:06

[Profile]  [PM] 
Display posts:    

You cannot post new topics in this forum
You cannot reply to topics in this forum
You cannot edit your posts in this forum
You cannot delete your posts in this forum
You cannot vote in polls in this forum
You cannot attach files in this forum
You can download files in this forum
User agreement
For copyright holders
Advertise on this site

Скачайте на халяву через торрент на трекере erzsebet.pl

!ATTENTION!
The site does not give electronic versions of products, and is engaged only in a collecting and cataloguing of the references sent and published at a forum by our readers. If you are the legal owner of any submitted material and do not wish that the reference to it was in our catalogue, contact us and we shall immediately remove her. Files for an exchange on tracker are given by users of a site, and the administration does not bear the responsibility for their maintenance. The request to not fill in the files protected by copyrights, and also files of the illegal maintenance!