Студенческий угар / Going Greek (Джастин Закэм / Justin Zackham) [2001, США, комедия, DVDRip-AVC] MVO (Zone Vision)

DL-List and Torrent activity
Size:  2.06 GB   |    Registered:  2 years 9 months   |    Completed:  16 times
Seeders:  2  
 
   
 
 

erzsebet.org ®

Longevity:
2 years 9 months
Posts:
47596

[Quote] 

Студенческий угар / Going Greek
Страна: США
Жанр: комедия
Год выпуска: 2001
Продолжительность: 01:29:35
Перевод: Профессиональный (многоголосый закадровый) Zone Vision по заказу ТНТ
Субтитры: нет
Режиссер: Джастин Закэм / Justin Zackham
В ролях: Дилан Бруно, Лора Харрис, Саймон Рекс, Даблин Джеймс, Крис Оуэн, Харви Сильвер, Стив Монро, Оливер Хадсон, Сьюзэн Уорд, Тодд Гибенхейн...
Описание: Чтобы девушка просто обратила на тебя внимание, нужно вбежать в аудиторию голым, вывалить тарелку макарон на голову однокурснику и при всех поцеловать декана. Как же тогда пригласить ее на свидание?
Сэмпл: http://sendfile.su/1366293
Качество видео: DVDRip-AVC
Формат видео: MKV
Видео: 718x352 (16:9) @ 718x396, 23.976 fps, AVC, ~2914 Kbps, 0.481 bits/pixel
Аудио 1: Russian, 48.0 KHz, AC3, 2 ch, 192 Kbps - ТНТ
Аудио 2: English, 48.0 KHz, AC3, 2 ch, 192 Kbps

Log

avs4x26x.exe: -L x264_64.exe --pass 2 --bitrate 2914 --preset medium --tune film --ref 10 --merange 32 --bframes 10 --direct auto --b-adapt 2 --trellis 2 --no-fast-pskip --no-dct-decimate --psy-rd 1.00:0.20 --subme 10 --me umh --rc-lookahead 50 --vbv-bufsize 20000 --vbv-maxrate 20000 --partitions p8x8,b8x8,i4x4,i8x8 --sar 8:9 --stats
raw [info]: 718x352p 8:9 @ 24000/1001 fps (cfr)
x264 [info]: using SAR=8/9
x264 [info]: using cpu capabilities: MMX2 SSE2Fast LZCNT
x264 [info]: profile High, level 3.2
x264 [info]: frame I:982 Avg QP:16.71 size: 53774
x264 [info]: frame P:30065 Avg QP:19.39 size: 29423
x264 [info]: frame B:97819 Avg QP:22.60 size: 10424
x264 [info]: consecutive B-frames: 1.7% 4.8% 10.1% 20.4% 37.0% 21.0% 1.7% 1.1% 0.5% 0.9% 0.7%
x264 [info]: mb I I16..4: 7.0% 84.6% 8.4%
x264 [info]: mb P I16..4: 1.6% 27.0% 2.2% P16..4: 25.5% 22.6% 16.6% 0.0% 0.0% skip: 4.5%
x264 [info]: mb B I16..4: 0.2% 5.0% 0.3% B16..8: 44.8% 13.0% 3.7% direct:10.1% skip:22.8% L0:36.3% L1:30.3% BI:33.3%
x264 [info]: 8x8 transform intra:88.7% inter:63.7%
x264 [info]: direct mvs spatial:94.5% temporal:5.5%
x264 [info]: coded y,uvDC,uvAC intra: 93.8% 96.1% 80.2% inter: 42.6% 44.6% 23.3%
x264 [info]: i16 v,h,dc,p: 40% 15% 18% 27%
x264 [info]: i8 v,h,dc,ddl,ddr,vr,hd,vl,hu: 13% 12% 23% 7% 8% 8% 8% 9% 11%
x264 [info]: i4 v,h,dc,ddl,ddr,vr,hd,vl,hu: 11% 10% 7% 8% 14% 13% 13% 11% 13%
x264 [info]: i8c dc,h,v,p: 37% 25% 20% 17%
x264 [info]: Weighted P-Frames: Y:3.4% UV:1.4%
x264 [info]: ref P L0: 43.6% 12.6% 18.0% 5.4% 6.0% 3.6% 4.0% 2.1% 2.5% 2.1% 0.1% 0.0%
x264 [info]: ref B L0: 83.2% 9.0% 3.1% 1.5% 1.2% 0.8% 0.7% 0.4% 0.2%
x264 [info]: ref B L1: 97.5% 2.5%
x264 [info]: kb/s:2913.02
x264 [total]: encoded 128866 frames, 12.92 fps, 2913.02 kb/s

MediaInfo

General
Unique ID : 192699840436108293048622636377304055685 (0x90F8A3A8FF7ABFDBBD4A968EB951BF85)
Complete name : C:\Going Greek.mkv
Format : Matroska
Format version : Version 4 / Version 2
File size : 2.06 GiB
Duration : 1 h 29 min
Overall bit rate : 3 299 kb/s
Encoded date : UTC 2017-09-29 19:17:06
Writing application : mkvmerge v15.0.0 ('Duel with the Devil') 64-bit
Writing library : libebml v1.3.5 + libmatroska v1.4.5
Video
ID : 1
Format : AVC
Format/Info : Advanced Video Codec
Format profile : [email protected]
Format settings, CABAC : Yes
Format settings, RefFrames : 10 frames
Codec ID : V_MPEG4/ISO/AVC
Duration : 1 h 29 min
Bit rate : 2 914 kb/s
Width : 718 pixels
Height : 352 pixels
Display aspect ratio : 16:9
Frame rate mode : Constant
Frame rate : 23.976 (24000/1001) FPS
Color space : YUV
Chroma subsampling : 4:2:0
Bit depth : 8 bits
Scan type : Progressive
Bits/(Pixel*Frame) : 0.481
Stream size : 1.82 GiB (88%)
Writing library : x264 core 152 r2851 ba24899
Encoding settings : cabac=1 / ref=10 / deblock=1:-1:-1 / analyse=0x3:0x113 / me=umh / subme=10 / psy=1 / psy_rd=1.00:0.20 / mixed_ref=1 / me_range=32 / chroma_me=1 / trellis=2 / 8x8dct=1 / cqm=0 / deadzone=21,11 / fast_pskip=0 / chroma_qp_offset=-3 / threads=6 / lookahead_threads=1 / sliced_threads=0 / nr=0 / decimate=0 / interlaced=0 / bluray_compat=0 / constrained_intra=0 / bframes=10 / b_pyramid=2 / b_adapt=2 / b_bias=0 / direct=3 / weightb=1 / open_gop=0 / weightp=2 / keyint=250 / keyint_min=23 / scenecut=40 / intra_refresh=0 / rc_lookahead=50 / rc=2pass / mbtree=1 / bitrate=2914 / ratetol=1.0 / qcomp=0.60 / qpmin=0 / qpmax=69 / qpstep=4 / cplxblur=20.0 / qblur=0.5 / vbv_maxrate=20000 / vbv_bufsize=20000 / nal_hrd=none / filler=0 / ip_ratio=1.40 / aq=1:1.00
Language : English
Default : Yes
Forced : No
Audio #1
ID : 2
Format : AC-3
Format/Info : Audio Coding 3
Format settings, Endianness : Big
Codec ID : A_AC3
Duration : 1 h 29 min
Bit rate mode : Constant
Bit rate : 192 kb/s
Channel(s) : 2 channels
Channel positions : Front: L R
Sampling rate : 48.0 kHz
Frame rate : 31.250 FPS (1536 SPF)
Bit depth : 16 bits
Compression mode : Lossy
Stream size : 123 MiB (6%)
Title : ТНТ
Language : Russian
Service kind : Complete Main
Default : Yes
Forced : No
Audio #2
ID : 3
Format : AC-3
Format/Info : Audio Coding 3
Format settings, Endianness : Big
Codec ID : A_AC3
Duration : 1 h 29 min
Bit rate mode : Constant
Bit rate : 192 kb/s
Channel(s) : 2 channels
Channel positions : Front: L R
Sampling rate : 48.0 kHz
Frame rate : 31.250 FPS (1536 SPF)
Bit depth : 16 bits
Compression mode : Lossy
Stream size : 123 MiB (6%)
Language : English
Service kind : Complete Main
Default : No
Forced : No
Menu
00:03:36.802 : :Chapter 01
00:05:30.002 : :Chapter 02
00:09:27.002 : :Chapter 03
00:14:51.703 : :Chapter 04
00:19:15.970 : :Chapter 05
00:24:49.671 : :Chapter 06
00:27:15.871 : :Chapter 07
00:34:02.772 : :Chapter 08
00:39:10.439 : :Chapter 09
00:43:42.973 : :Chapter 10
00:48:11.707 : :Chapter 11
00:54:33.641 : :Chapter 12
00:58:06.774 : :Chapter 13
01:00:59.008 : :Chapter 14
01:04:07.876 : :Chapter 15
01:07:33.976 : :Chapter 16
01:10:06.677 : :Chapter 17
01:15:18.844 : :Chapter 18
01:18:30.745 : :Chapter 19
01:25:07.945 : :Chapter 20

Скриншоты

If your ratio falls below 0.3, you will not be able to download Torrents! More about the rating.

[erzsebet.pl].t923.torrent
Torrent: Registered   [ 2017-12-02 17:26 ]

Download .torrent

Download

11 KB

Status: checked
Completed: 16 times
Size: 2.06 GB
terms.php

#1

02-Dec-2017 17:25

[Profile]  [PM] 
Display posts:    

You cannot post new topics in this forum
You cannot reply to topics in this forum
You cannot edit your posts in this forum
You cannot delete your posts in this forum
You cannot vote in polls in this forum
You cannot attach files in this forum
You can download files in this forum
User agreement
For copyright holders
Advertise on this site

Скачайте на халяву через торрент на трекере erzsebet.pl

!ATTENTION!
The site does not give electronic versions of products, and is engaged only in a collecting and cataloguing of the references sent and published at a forum by our readers. If you are the legal owner of any submitted material and do not wish that the reference to it was in our catalogue, contact us and we shall immediately remove her. Files for an exchange on tracker are given by users of a site, and the administration does not bear the responsibility for their maintenance. The request to not fill in the files protected by copyrights, and also files of the illegal maintenance!