Реальный мир: Последний сезон / The Real World Movie: The Lost Season (Джеффри Рейнер / Jeffrey Reiner) [2002, Канада, США, комедия, VHSRip] MVO

DL-List and Torrent activity
Size:  1.37 GB   |    Registered:  2 years 9 months   |    Completed:  16 times
Seeders:  2  
 
   
 
 

erzsebet.org ®

Longevity:
2 years 9 months
Posts:
47596

[Quote] 

Реальный мир: Последний сезон / The Real World Movie: The Lost Season
Страна: Канада, США
Жанр: комедия
Год выпуска: 2002
Продолжительность: 01:26:47
Перевод: Профессиональный (многоголосый закадровый)
Субтитры: нет
Режиссер: Джеффри Рейнер / Jeffrey Reiner
В ролях: Брайан Кирквуд
Мэттью Карри Холмс
Шэйни Прайд
Джули Пацвальд
Лаура Джордан
Майкл Лейзен
Джон Рирдон
Уилл Сэндерсон
Описание: Художественный фильм-вариация на тему популярного телевизионного MTV-шоу с остросюжетной интригой. Группа добровольцев получает приглашение принять участие в реальном шоу, продюсером которого выступает загадочный молодой человек по имени Роланд.
На месте съемок, новоявленный «продюсер» торжественно объявляет вновь прибывшим, что к телекамерам подключена взрывчатка, которая сработает, если актеры вдруг откажутся участвовать в шоу… Дело в том, что после неоднократных, но безуспешных попыток пройти кастинг для участия в «Реальном мире», Роланд сходит с ума и решает устроить свой «звездный час», став продюсером своего любимого шоу…
Доп. информация: Оцифровка VHS от d_rocker
Релиз
Сэмпл: https://yadi.sk/i/X4ExUIOKu4Qti
Качество видео: VHSRip
Формат видео: AVI
Видео: 704x528 (1.33:1), 25 fps, XviD build 73 ~2052 kbps avg, 0.22 bit/pixel
Аудио: 48 kHz, AC3 Dolby Digital, 2/0 (L,R) ch, ~192 kbps

MediaInfo

Реальный мир. Последний сезон - Real World. The Lost Season [by Edich2].avi
Format : AVI
Format/Info : Audio Video Interleave
File size : 1.37 GiB
Duration : 1 h 26 min
Overall bit rate : 2 254 kb/s
Movie name : Реальный мир. Последний сезон - Real World. The Lost Season [by Edich2]
Director : by Edich2
Writing application : VirtualDubMod 1.5.10.2 (build 2540/release)
Comment : erzsebet.org
Video
ID : 0
Format : MPEG-4 Visual
Format profile : Advanced [email protected]
Format settings, BVOP : 2
Format settings, QPel : No
Format settings, GMC : No warppoints
Format settings, Matrix : Custom
Codec ID : XVID
Codec ID/Hint : XviD
Duration : 1 h 26 min
Bit rate : 2 053 kb/s
Width : 704 pixels
Height : 528 pixels
Display aspect ratio : 4:3
Frame rate : 25.000 FPS
Color space : YUV
Chroma subsampling : 4:2:0
Bit depth : 8 bits
Scan type : Progressive
Compression mode : Lossy
Bits/(Pixel*Frame) : 0.221
Stream size : 1.24 GiB (91%)
Writing library : XviD 73
Audio
ID : 1
Format : AC-3
Format/Info : Audio Coding 3
Mode extension : CM (complete main)
Format settings, Endianness : Big
Codec ID : 2000
Duration : 1 h 26 min
Bit rate mode : Constant
Bit rate : 192 kb/s
Channel(s) : 2 channels
Channel positions : Front: L R
Sampling rate : 48.0 kHz
Frame rate : 31.250 FPS (1536 spf)
Compression mode : Lossy
Delay relative to video : 500 ms
Stream size : 119 MiB (9%)
Alignment : Split accross interleaves
Interleave, duration : 40 ms (1.00 video frame)
Interleave, preload duratio : 500 ms

Скриншоты


If your ratio falls below 0.3, you will not be able to download Torrents! More about the rating.

[erzsebet.pl].t927.torrent
Torrent: Registered   [ 2017-12-02 17:26 ]

Download .torrent

Download

14 KB

Status: checked
Completed: 16 times
Size: 1.37 GB
terms.php

#1

02-Dec-2017 17:25

[Profile]  [PM] 
Display posts:    

You cannot post new topics in this forum
You cannot reply to topics in this forum
You cannot edit your posts in this forum
You cannot delete your posts in this forum
You cannot vote in polls in this forum
You cannot attach files in this forum
You can download files in this forum
User agreement
For copyright holders
Advertise on this site

Скачайте на халяву через торрент на трекере erzsebet.pl

!ATTENTION!
The site does not give electronic versions of products, and is engaged only in a collecting and cataloguing of the references sent and published at a forum by our readers. If you are the legal owner of any submitted material and do not wish that the reference to it was in our catalogue, contact us and we shall immediately remove her. Files for an exchange on tracker are given by users of a site, and the administration does not bear the responsibility for their maintenance. The request to not fill in the files protected by copyrights, and also files of the illegal maintenance!