Целитель / Le Guérisseur (Ив Чампи / Yves Ciampi) [1953, Франция, драма, VHSRip] VO (Линда) + Sub Rus + Original Fre

DL-List and Torrent activity
Size:  1.27 GB   |    Registered:  2 years 9 months   |    Completed:  16 times
Seeders:  8   Leechers:  1   Show peers in full details
 
   
 
 

erzsebet.org ®

Longevity:
2 years 9 months
Posts:
47596

[Quote] 

Целитель / Le Guérisseur
Страна: Франция
Жанр: драма
Год выпуска: 1953
Продолжительность: 01:35:47
Перевод: Одноголосый закадровый Линда
Перевод 2: Субтитры
Субтитры: русские
Оригинальная аудиодорожка: французский
Режиссер: Ив Чампи / Yves Ciampi
В ролях: Даниэль Делорм, Жан Марэ, Дитер Борше, Анри Нассье, Морис Роне, Жан Мюрат, Пьер Монди, Жан Галлан, Жорж Роллен, Марианна Освальд, Рене Пассёр, Колетт Режис, Джим Жеральд, Марсель Жоз, Андре Вар, Юг Ваннер
Описание: На фоне множества целителей, практикующих по городам и весям Бретани, месье Лоран из Динана стоит особняком. Его диагнозы всегда точны, стол ломится от писем благодарных пациентов и имеется в активе настоящее чудо – оживление Луизы Мерьядек, пережившей клиническую смерть после сердечного приступа. Это событие до глубины души потрясло крестницу Луизы Изабель – она влюбилась в наделенного необычным даром человека и согласилась стать его женой. Черная кошка пробежала между влюбленными, когда Изабель узнала, что знаменитый целитель – на самом деле бывший врач Пьер Лашо, прежние коллеги которого готовы привлечь его к суду за незаконную медицинскую практику и злоупотребление доверием.
Доп. информация:
Перевод выполнен по расшифровке звуковой дорожки.
Качество видеоматериала оставляет желать лучшего, но ничего более привлекательного найти не удалось.
Благодарю WreckerZippers за исходный видеоматериал, serjinho777 – за обработку рипа, Kolobroad – за помощь в озвучивании фильма, а punk and destroy – за работу по синхронизации русской озвучки.

Сэмпл: http://multi-up.com/1175702
Качество видео: VHSRip
Формат видео: AVI
Видео: Xvid, 720x544, 4:3, 25.000 fps, 1 498 Kbps
Аудио: AC-3, 48 KHz, 192 Kbps, 2 channels, русский
Аудио 2: AC-3, 48 KHz, 192 Kbps, 2 channel, французский
Формат субтитров: softsub (SRT)

Субтитры

1
00:00:01,036 --> 00:00:04,810
Этот фильм навеян
подлинными...
2
00:00:04,810 --> 00:00:06,948
событиями, документами
и ситуациями.
3
00:00:24,857 --> 00:00:28,730
ЦЕЛИТЕЛЬ
4
00:01:57,576 --> 00:01:59,259
ДИНАН
5
00:02:29,361 --> 00:02:31,012
Заканчиваешь, Фредерик?
6
00:03:07,500 --> 00:03:08,574
Луиза!
7
00:03:09,204 --> 00:03:10,286
Луиза!
8
00:03:10,678 --> 00:03:11,878
Луи!
9
00:03:15,206 --> 00:03:16,682
Фредерик!
10
00:03:17,423 --> 00:03:19,044
Фредерик, скорее за доктором!
11
00:03:31,255 --> 00:03:33,623
Думаете, она...
12
00:04:01,548 --> 00:04:03,904
Как он лечит?
- Руками.
13
00:04:03,904 --> 00:04:06,610
Руками?
- Да. Флюидами.
14
00:04:06,610 --> 00:04:10,293
Это месье Лоран.
- Он не врач?
15
00:04:10,293 --> 00:04:13,265
Целитель. Он всегда
её так лечит.

MediaInfo

Format : AVI
Format/Info : Audio Video Interleave
File size : 1.27 GiB
Duration : 1h 35mn
Overall bit rate : 1 893 Kbps
Writing application : VirtualDubMod 1.5.10.1 Рус от Stvens Inc.™ www.stvens.amillo.net (build 2439/release)
Writing library : VirtualDubMod build 2439/release
Video
ID : 0
Format : MPEG-4 Visual
Format profile : Advanced [email protected]
Format settings, BVOP : 2
Format settings, QPel : No
Format settings, GMC : No warppoints
Format settings, Matrix : Default (MPEG)
Codec ID : XVID
Codec ID/Hint : XviD
Duration : 1h 35mn
Bit rate : 1 498 Kbps
Width : 720 pixels
Height : 544 pixels
Display aspect ratio : 4:3
Frame rate : 25.000 fps
Color space : YUV
Chroma subsampling : 4:2:0
Bit depth : 8 bits
Scan type : Progressive
Compression mode : Lossy
Bits/(Pixel*Frame) : 0.153
Stream size : 1.00 GiB (79%)
Writing library : Lavc55.18.102
Audio #1
ID : 1
Format : AC-3
Format/Info : Audio Coding 3
Mode extension : CM (complete main)
Format settings, Endianness : Big
Codec ID : 2000
Duration : 1h 35mn
Bit rate mode : Constant
Bit rate : 192 Kbps
Channel(s) : 2 channels
Channel positions : Front: L R
Sampling rate : 48.0 KHz
Bit depth : 16 bits
Compression mode : Lossy
Stream size : 132 MiB (10%)
Alignment : Split accross interleaves
Interleave, duration : 40 ms (1.00 video frame)
Interleave, preload duration : 500 ms
Audio #2
ID : 2
Format : AC-3
Format/Info : Audio Coding 3
Mode extension : CM (complete main)
Format settings, Endianness : Big
Codec ID : 2000
Duration : 1h 35mn
Bit rate mode : Constant
Bit rate : 192 Kbps
Channel(s) : 2 channels
Channel positions : Front: L R
Sampling rate : 48.0 KHz
Bit depth : 16 bits
Compression mode : Lossy
Stream size : 132 MiB (10%)
Alignment : Aligned on interleaves
Interleave, duration : 160 ms (4.00 video frames)
Interleave, preload duration : 640 ms

Скриншот c названием фильма

If your ratio falls below 0.3, you will not be able to download Torrents! More about the rating.

[erzsebet.pl].t93.torrent
Torrent: Registered   [ 2017-12-02 16:06 ]

Download .torrent

Download

13 KB

Status: checked
Completed: 16 times
Size: 1.27 GB
terms.php

#1

02-Dec-2017 16:06

[Profile]  [PM] 
Display posts:    

You cannot post new topics in this forum
You cannot reply to topics in this forum
You cannot edit your posts in this forum
You cannot delete your posts in this forum
You cannot vote in polls in this forum
You cannot attach files in this forum
You can download files in this forum
User agreement
For copyright holders
Advertise on this site

Скачайте на халяву через торрент на трекере erzsebet.pl

!ATTENTION!
The site does not give electronic versions of products, and is engaged only in a collecting and cataloguing of the references sent and published at a forum by our readers. If you are the legal owner of any submitted material and do not wish that the reference to it was in our catalogue, contact us and we shall immediately remove her. Files for an exchange on tracker are given by users of a site, and the administration does not bear the responsibility for their maintenance. The request to not fill in the files protected by copyrights, and also files of the illegal maintenance!