Коллин / Colleen (Альфред Э. Грин / Alfred E. Green) [1936, США, мюзикл, комедия, DVDRip] VO + Original Eng

DL-List and Torrent activity
Size:  1.58 GB   |    Registered:  2 years 9 months   |    Completed:  16 times
Seeders:  3  
 
   
 
 

erzsebet.org ®

Longevity:
2 years 9 months
Posts:
47596

[Quote] 

Коллин / Colleen
Страна: США
Студия: Warner Bros. Pictures
Жанр: комедия, мюзикл
Год выпуска: 1936
Продолжительность: 01:29:23
Перевод: Одноголосый закадровый - Владимир Воронцов (-Доцент-)
Субтитры: русские (только на песни)
Оригинальная аудиодорожка: английский
Режиссер: Альфред Э. Грин / Alfred E. Green
Композитор: Хайнц Рёмхельд / Heinz Roemheld
В ролях: Дик Пауэлл / Dick Powell ... Donald Ames 3rd
Руби Килер / Ruby Keeler ... Colleen Reilly
Джек Оуки / Jack Oakie ... Joe Cork
Джоан Блонделл / Joan Blondell ... Minnie Hawkins

Хью Херберт / Hugh Herbert ... Cedric Ames
Луиза Фазенда / Louise Fazenda ... Alicia Ames
Пол Дрэйпер / Paul Draper ... Paul Gordon
Мари Уилсон / Marie Wilson ... Mabel
Луи Альберни / Luis Alberni ... Carlo
Хобарт Кавано / Hobart Cavanaugh ... Noggin
Бертон Черчилль / Berton Churchill ... Logan
Дж. М. Кэрриган / J.M. Kerrigan ... Pop Reilly
Эддисон Ричардс / Addison Richards ... Schuyler
Чарльз Коулмэн / Charles Coleman ... Butler

Описание: К ужасу своей семьи эксцентричный миллионер Седрик Эймс, под влиянием своего нового помощника Джо Корка, покупает магазин одежды для Минни Хокинс, охотницы на богатых мужчин. Племянник Седрика, Дональд Эймс третий, который управляет семейным бизнесом, предпринимает шаги, чтобы исправить ситуацию. Он собирается закрыть магазин, но вскоре начинает сомневаться в своем решении, поскольку влюбляется в работающую в магазине бухгалтершу Коллин Райли...--БОЛЬШОЕ СПАСИБО:
Перевод и озвучивание фильма - Владимир Воронцов (-Доцент-)
Работа со звуком и реавторинг DVD - AlekceyR76
Также Большое Спасибо всем, кто принял участие в появлении перевода и озвучки к этому фильму:
Магда, Lafajet, jasenka, елена 22, yanaelisa, keg38, leoder, voostorg, HippopotamusIV, surzhoks, cementit, sindzi, sapog1960, Simpun
--Сэмпл: http://multi-up.com/1175690
Качество видео: DVDRip
Формат видео: AVI
Видео: XviD, 640x480 (1.33:1), 23.976 fps, 2129 Kbps
Аудио 1: AC3, 48.0 KHz, 2 ch., 192 Kbps (русский одноголосый закадровый перевод) - Владимир Воронцов (-Доцент-)
Аудио 2: AC3, 48.0 KHz, 2 ch., 192 Kbps (оригинальная английская звуковая дорожка, лежит отдельно)
Как подключить альтернативную (внешнюю) звуковую дорожку к видео при просмотре?
Как добавить отдельно лежащую аудиодорожку в .avi - файл? (см. "Программы для работы с контейнерами" - > "VirtualDub" или "AVI-Mux")

MediaInfo

AVI-файл:
Общее
Полное имя : F:\РАЗДАЧИ\Colleen 1936\Colleen.avi
Формат : AVI
Формат/Информация : Audio Video Interleave
Размер файла : 1,46 Гбайт
Продолжительность : 1 ч. 29 м.
Общий поток : 2330 Кбит/сек
Программа кодирования : VirtualDubMod 1.5.10.3 | www.virtualdub-fr.org || (build 2550/release)
Библиотека кодирования : VirtualDubMod build 2550/release
Видео
Идентификатор : 0
Формат : MPEG-4 Visual
Профиль формата : Advanced [email protected]
Параметр BVOP формата : 2
Параметр QPel формата : Нет
Параметр GMC формата : Без точки перехода
Параметр матрицы формата : Default (H.263)
Идентификатор кодека : DX50
Идентификатор кодека/Подсказка : DivX 5
Продолжительность : 1 ч. 29 м.
Битрейт : 2129 Кбит/сек
Ширина : 640 пикселей
Высота : 480 пикселей
Соотношение сторон : 4:3
Частота кадров : 23,976 (24000/1001) кадра/сек
Цветовое пространство : YUV
Субдискретизация насыщенности : 4:2:0
Битовая глубина : 8 бит
Тип развёртки : Прогрессивная
Метод сжатия : С потерями
Бит/(Пиксели*Кадры) : 0.289
Размер потока : 1,33 Гбайт (91%)
Библиотека кодирования : XviD 73
Аудио
Идентификатор : 1
Формат : AC-3
Формат/Информация : Audio Coding 3
Параметр Endianness формата : Big
Идентификатор кодека : 2000
Продолжительность : 1 ч. 29 м.
Вид битрейта : Постоянный
Битрейт : 192 Кбит/сек
Каналы : 2 канала
Расположение каналов : Front: L R
Частота : 48,0 КГц
Частота кадров : 31,250 кадров/сек (1536 spf)
Битовая глубина : 16 бит
Метод сжатия : С потерями
Размер потока : 123 Мбайт (8%)
Выравнивание : Разделение по промежуткам
Продолжительность промежутка : 42 мс. (1,00 видеокадр)
Время предзагрузки промежутка : 500 мс.
ServiceKind/String : Complete Main
английская оригинальная звуковая дорожка, лежит отдельно:
Общее
Полное имя : F:\РАЗДАЧИ\Colleen 1936\Colleen.ENG.ac3
Формат : AC-3
Формат/Информация : Audio Coding 3
Размер файла : 123 Мбайт
Продолжительность : 1 ч. 29 м.
Режим общего битрейта : Постоянный
Общий поток : 192 Кбит/сек
Аудио
Формат : AC-3
Формат/Информация : Audio Coding 3
Параметр Endianness формата : Big
Продолжительность : 1 ч. 29 м.
Вид битрейта : Постоянный
Битрейт : 192 Кбит/сек
Каналы : 2 канала
Расположение каналов : Front: L R
Частота : 48,0 КГц
Частота кадров : 31,250 кадров/сек (1536 spf)
Битовая глубина : 16 бит
Метод сжатия : С потерями
Размер потока : 123 Мбайт (100%)
ServiceKind/String : Complete Main

If your ratio falls below 0.3, you will not be able to download Torrents! More about the rating.

[erzsebet.pl].t94.torrent
Torrent: Registered   [ 2017-12-02 16:06 ]

Download .torrent

Download

16 KB

Status: checked
Completed: 16 times
Size: 1.58 GB
terms.php

#1

02-Dec-2017 16:06

[Profile]  [PM] 
Display posts:    

You cannot post new topics in this forum
You cannot reply to topics in this forum
You cannot edit your posts in this forum
You cannot delete your posts in this forum
You cannot vote in polls in this forum
You cannot attach files in this forum
You can download files in this forum
User agreement
For copyright holders
Advertise on this site

Скачайте на халяву через торрент на трекере erzsebet.pl

!ATTENTION!
The site does not give electronic versions of products, and is engaged only in a collecting and cataloguing of the references sent and published at a forum by our readers. If you are the legal owner of any submitted material and do not wish that the reference to it was in our catalogue, contact us and we shall immediately remove her. Files for an exchange on tracker are given by users of a site, and the administration does not bear the responsibility for their maintenance. The request to not fill in the files protected by copyrights, and also files of the illegal maintenance!