Человек-паук 2 / Spider-Man 2 (Сэм Рэйми / Sam Raimi) [2004, США, фантастика, боевик, приключения, WEB-DLRip-AVC] [Театральная версия / Theatrical Cut] [Open Matte] DVO (Tycoon) + AVO (Королёв) + Sub Rus Eng + Original Eng

DL-List and Torrent activity
Size:  2.93 GB   |    Registered:  2 years 9 months   |    Completed:  16 times
Seeders:  7  
 
   
 
 

erzsebet.org ®

Longevity:
2 years 9 months
Posts:
47596

[Quote] 

Человек-паук 2 [Театральная версия] / Spider-Man 2 [Theatrical Cut] / Open Matte
Страна: США
Жанр: фантастика, боевик, приключения
Год выпуска: 2004
Продолжительность: 02:07:28
Перевод: Профессиональный (двухголосый закадровый) Tycoon
Перевод 2: Авторский (одноголосый закадровый) В. Королёв
Субтитры: русские, английские
Оригинальная аудиодорожка: английский
Режиссёр: Сэм Рэйми / Sam Raimi
В ролях: Тоби Магуайр, Кирстен Данст, Джеймс Франко, Альфред Молина, Розмари Харрис, Дж.К. Симмонс, Донна Мерфи, Дэниэл Гиллис, Дилан Бейкер, Билл Нанн и др.
Описание: С момента событий, произошедших в первом фильме, прошло два года. Тихоня Питер Паркер сталкивается с новыми проблемами: он борется со своим «даром и проклятьем», отчаянно пытаясь балансировать на грани двух своих жизней: метающего паутину супергероя Человека-Паука и обычного студента колледжа…
Мучимый своими секретами, Питер понимает, что его отношения со всеми, кто ему дорог, в опасности или заходят в тупик. Его любовь к Мэри Джейн становится еще сильнее, обостряемая порывом Питера раскрыть ей свой секрет и признаться в любви. Дружба с Гарри осложняется горечью молодого Осборна по умершему отцу и всё большим желанием отомстить Человеку-Пауку.
Даже любимая тетушка Мэй, у которой были нелегкие времена после смерти дяди Бена, начинает что-то подозревать насчет своего племянника. Жизнь Питера становится еще более сложной, когда он сталкивается с новым суперзлодеем — доктором Отто Октавиусом. Питер должен использовать все свои суперспособности, чтобы одолеть этого жестокого безумца с восемью конечностями…
Фильмы в Fullscreen (4:3) и Open Matte (16:9) форматах
Сэмпл: http://multi-up.com/1169524
Качество видео: WEB-DLRip-AVC Исходник
Формат видео: MKV
Видео: MPEG-4 AVC/H.264 / 2140 kbps / 1024x576 / 23.976 fps
Аудио 1: DVO Tycoon (Rus) / AC3 / 6 ch / 384 kbps / 48 kHz
Аудио 2: AVO Королёв (Rus) / AC3 / 6 ch / 384 kbps / 48 kHz
Аудио 3: Original (Eng) / AC3 / 6 ch / 384 kbps / 48 kHz
Формат субтитров: softsub (SRT)
Доп. информация о субтитрах: Русские (full), Английские (full)
#Сохранены оригинальные чаптеры как на Blu-ray

MediaInfo

General
Unique ID : 176049435056443103479443623887515397708 (0x8471E34B3C8312138FEB8FD326B7AE4C)
Complete name : J:\Torrents\Готовые релизы\Человек-паук 2 (2004) WEB-DLRip-AVC (Театральная версия) [Open Matte].mkv
Format : Matroska
Format version : Version 2
File size : 2.93 GiB
Duration : 2 h 7 min
Overall bit rate : 3 291 kb/s
Movie name : Человек-паук 2 [Театральная версия] / Spider-Man 2 [Theatrical Cut] (2004) [Open Matte]
Encoded date : UTC 2017-09-14 05:56:01
Writing application : mkvmerge v5.5.0 ('Healer') built on Apr 24 2012 23:47:03
Writing library : libebml v1.2.3 + libmatroska v1.3.0
Video
ID : 1
Format : AVC
Format/Info : Advanced Video Codec
Format profile : [email protected]
Format settings, CABAC : Yes
Format settings, ReFrames : 8 frames
Codec ID : V_MPEG4/ISO/AVC
Duration : 2 h 7 min
Bit rate : 2 140 kb/s
Width : 1 024 pixels
Height : 576 pixels
Display aspect ratio : 16:9
Frame rate mode : Constant
Frame rate : 23.976 (24000/1001) FPS
Color space : YUV
Chroma subsampling : 4:2:0
Bit depth : 8 bits
Scan type : Progressive
Bits/(Pixel*Frame) : 0.151
Stream size : 1.85 GiB (63%)
Title : WEB-DLRip (AVC) / MPEG-4 AVC/H.264 / 2140 kbps / 1024x576 / 23.976 fps
Writing library : x264 core 146 r2538 121396c
Encoding settings : cabac=1 / ref=8 / deblock=1:0:0 / analyse=0x3:0x113 / me=umh / subme=10 / psy=1 / psy_rd=1.00:0.00 / mixed_ref=1 / me_range=32 / chroma_me=1 / trellis=2 / 8x8dct=1 / cqm=0 / deadzone=21,11 / fast_pskip=0 / chroma_qp_offset=-2 / threads=6 / lookahead_threads=1 / sliced_threads=0 / nr=0 / decimate=1 / interlaced=0 / bluray_compat=0 / constrained_intra=0 / bframes=9 / b_pyramid=2 / b_adapt=2 / b_bias=0 / direct=3 / weightb=1 / open_gop=0 / weightp=2 / keyint=250 / keyint_min=23 / scenecut=40 / intra_refresh=0 / rc_lookahead=50 / rc=2pass / mbtree=1 / bitrate=2140 / ratetol=1.0 / qcomp=0.60 / qpmin=0 / qpmax=69 / qpstep=4 / cplxblur=20.0 / qblur=0.5 / vbv_maxrate=14000 / vbv_bufsize=14000 / nal_hrd=none / filler=0 / ip_ratio=1.40 / aq=1:1.00
Language : English
Default : Yes
Forced : Yes
Audio #1
ID : 2
Format : AC-3
Format/Info : Audio Coding 3
Mode extension : CM (complete main)
Format settings, Endianness : Big
Codec ID : A_AC3
Duration : 2 h 7 min
Bit rate mode : Constant
Bit rate : 384 kb/s
Channel(s) : 6 channels
Channel positions : Front: L C R, Side: L R, LFE
Sampling rate : 48.0 kHz
Frame rate : 31.250 FPS (1536 spf)
Bit depth : 16 bits
Compression mode : Lossy
Stream size : 350 MiB (12%)
Title : DVO Tycoon (Rus) / AC3 / 6 ch / 384 kbps / 48 kHz
Language : Russian
Default : Yes
Forced : Yes
Audio #2
ID : 3
Format : AC-3
Format/Info : Audio Coding 3
Mode extension : CM (complete main)
Format settings, Endianness : Big
Codec ID : A_AC3
Duration : 2 h 7 min
Bit rate mode : Constant
Bit rate : 384 kb/s
Channel(s) : 6 channels
Channel positions : Front: L C R, Side: L R, LFE
Sampling rate : 48.0 kHz
Frame rate : 31.250 FPS (1536 spf)
Bit depth : 16 bits
Compression mode : Lossy
Stream size : 350 MiB (12%)
Title : AVO Королёв (Rus) / AC3 / 6 ch / 384 kbps / 48 kHz
Language : Russian
Default : No
Forced : No
Audio #3
ID : 4
Format : AC-3
Format/Info : Audio Coding 3
Mode extension : CM (complete main)
Format settings, Endianness : Big
Codec ID : A_AC3
Duration : 2 h 7 min
Bit rate mode : Constant
Bit rate : 384 kb/s
Channel(s) : 6 channels
Channel positions : Front: L C R, Side: L R, LFE
Sampling rate : 48.0 kHz
Frame rate : 31.250 FPS (1536 spf)
Bit depth : 16 bits
Compression mode : Lossy
Stream size : 350 MiB (12%)
Title : Original (Eng) / AC3 / 6 ch / 384 kbps / 48 kHz
Language : English
Default : No
Forced : No
Text #1
ID : 5
Format : UTF-8
Codec ID : S_TEXT/UTF8
Codec ID/Info : UTF-8 Plain Text
Title : Full [Kinomania] (Rus) / S_TEXT/UTF8
Language : Russian
Default : No
Forced : No
Text #2
ID : 6
Format : UTF-8
Codec ID : S_TEXT/UTF8
Codec ID/Info : UTF-8 Plain Text
Title : Full (Eng) / S_TEXT/UTF8
Language : English
Default : No
Forced : No
Menu
00:00:00.000 : en:01. Main Titles
00:03:27.457 : en:02. Pizza Man
00:07:24.903 : en:03. J. Jonah Jameson
00:08:52.824 : en:04. Dr. Connors
00:10:06.314 : en:05. "Surprise!"
00:14:28.951 : en:06. Peter and MJ in the Backyard
00:17:07.443 : en:07. Mr. Ditkovich
00:18:55.551 : en:08. Otto Octavius
00:22:12.498 : en:09. Wash 'N' Dry
00:22:50.536 : en:10. The Importance of Being Earnest
00:24:23.712 : en:11. Car Chase
00:26:22.122 : en:12. The Importance of Being on Time
00:28:27.581 : en:13. Web Failure
00:29:35.065 : en:14. The Elevator
00:31:03.653 : en:15. Peter Calls MJ
00:33:09.863 : en:16. Otto's Demonstration
00:39:50.513 : en:17. Horror Hospital
00:41:50.758 : en:18. Ock Awakens to the Horror
00:43:09.128 : en:19. New Villain in Town
00:44:40.219 : en:20. Doc Ock's Lair
00:46:57.231 : en:21. Bank Heist
00:50:01.165 : en:22. Battle Building
00:53:02.262 : en:23. Planetarium Party
00:58:04.773 : en:24. Spidey Crash Lands in Alley
00:59:36.281 : en:25. Ock Rebuilds
01:00:01.473 : en:26. Diagnosis
01:01:31.271 : en:27. Spider-Man No More
01:03:40.400 : en:28. "Raindrops Keep Falling on My Head"
01:05:24.420 : en:29. Peter Attends MJ's Play
01:08:14.424 : en:30. Jameson Gets the Suit
01:09:40.676 : en:31. Peter's Confession
01:13:48.424 : en:32. One More Little Chore
01:16:42.348 : en:33. Peter and the Burning Building
01:19:16.168 : en:34. Frustration
01:21:25.964 : en:35. Peter and Aunt May in the Backyard
01:25:16.194 : en:36. "My Back! My Back!"
01:26:49.371 : en:37. MJ Doubts John's the One
01:28:11.286 : en:38. "Do You Love Me, Or Not?"
01:30:40.143 : en:39. Enter the Octopus
01:33:05.163 : en:40. He's Back
01:34:12.772 : en:41. Clock Tower Fight
01:35:10.872 : en:42. The Train
01:37:12.368 : en:43. A Train to Catch
01:39:56.449 : en:44. Grateful Train Passengers
01:42:38.611 : en:45. Harry Learns the Truth About Peter
01:44:52.828 : en:46. The Final Confrontation
01:48:03.644 : en:47. Peter Appeals to Otto
01:53:07.614 : en:48. Web Love
01:55:30.173 : en:49. The Return of the Green Goblin
01:57:56.903 : en:50. Here Comes the Bride
02:01:54.474 : en:51. The Final Swing
02:02:44.148 : en:52. End Credits

Cравнения изданий

Scope (2.35:1) >>>>>>>>>>>>>>>>>>>>>>>>>>>>>>> Open Matte (16:9) >>>>>>>>>>>>>>>>>>>>>>>>>>>>>>> FullScreen (4:3)



Скриншот c названием фильма

Скриншоты

If your ratio falls below 0.3, you will not be able to download Torrents! More about the rating.

[erzsebet.pl].t942.torrent
Torrent: Registered   [ 2017-12-02 17:26 ]

Download .torrent

Download

15 KB

Status: checked
Completed: 16 times
Size: 2.93 GB
terms.php

#1

02-Dec-2017 17:25

[Profile]  [PM] 
Display posts:    

You cannot post new topics in this forum
You cannot reply to topics in this forum
You cannot edit your posts in this forum
You cannot delete your posts in this forum
You cannot vote in polls in this forum
You cannot attach files in this forum
You can download files in this forum
User agreement
For copyright holders
Advertise on this site

Скачайте на халяву через торрент на трекере erzsebet.pl

!ATTENTION!
The site does not give electronic versions of products, and is engaged only in a collecting and cataloguing of the references sent and published at a forum by our readers. If you are the legal owner of any submitted material and do not wish that the reference to it was in our catalogue, contact us and we shall immediately remove her. Files for an exchange on tracker are given by users of a site, and the administration does not bear the responsibility for their maintenance. The request to not fill in the files protected by copyrights, and also files of the illegal maintenance!