Авиатор / The Aviator (Мартин Скорсезе / Martin Scorsese) [2004, США, Германия, драма, биография, WEB-DLRip] [Open Matte] Dub

DL-List and Torrent activity
Size:  1.46 GB   |    Registered:  2 years 9 months   |    Completed:  16 times
Seeders:  3  
 
   
 
 

erzsebet.org ®

Longevity:
2 years 9 months
Posts:
47596

[Quote] 

-Авиатор / The Aviator
«Представьте себе жизнь без пределов»- -Страна: США, Германия
Жанр: драма, биография
Год выпуска: 2004
Продолжительность: 02:50:18-Перевод: Профессиональный (дублированный)
Субтитры: нет
Оригинальная аудиодорожка: нет-Режиссер: Мартин Скорсезе / Martin Scorsese-В ролях: Леонардо Ди Каприо, Кейт Бланшетт, Кейт Бекинсейл, Джон С. Рейли, Алек Болдуин, Алан Алда, Йен Холм, Дэнни Хьюстон, Гвен Стефани, Джуд Лоу, Адам Скотт, Мэтт Росс, Келли Гарнер, Фрэнсис Сонрой, Брент Спайнер, Стэнли ДеСантис, Эдвард Херрманн, Уиллем Дафо, Кеннет Уэлш, Дж.С. МакКензи, Джейкоб Дэвич-Описание: Получив от отца небольшую фабрику, Говард Хьюз превратил ее в гигантское, фантастически прибыльное предприятие. Став владельцем огромной кинокомпании, он снял самый дорогой для своего времени фильм и покорил сердца прелестнейших голливудских актрис.
Ему принадлежали самые престижные казино Лас-Вегаса и он установил рекорд скоростных полетов, приобрел вторую по величине коммерческую авиакомпанию…
Деньги жгут сердце Хьюза, они не дают ему покоя, а душа его рвется ввысь. Только там, на высоте нескольких тысяч метров он счастлив по-настоящему. Только там, где все решает лишь мастерство пилота и Бог, ничто не ценится так дорого, как верность и честь.- - -Качество видео: WEB-DLRip / WEB-DL 1080p
Формат видео: AVI-Видео: XviD build 67, 688x384 (16:9), 23.976 fps, ~1086 kbps avg, 0.172 bit/pixel
Аудио: 48 kHz, MP3, 2/0 (L,R) ch, ~128 kbps avg-

MediaInfo

Complete name : D:\Раздачи\Авиатор (2004) WEB-DLRip_ivanes20031987.avi
Format : AVI
Format/Info : Audio Video Interleave
File size : 1.46 GiB
Duration : 2 h 50 min
Overall bit rate : 1 224 kb/s
Writing application : VirtualDubMod 1.5.10.3 (build 2550/release)
Writing library : VirtualDubMod build 2550/release
Video
ID : 0
Format : MPEG-4 Visual
Format profile : Advanced [email protected]
Format settings, BVOP : 1
Format settings, QPel : No
Format settings, GMC : No warppoints
Format settings, Matrix : Custom
Codec ID : XVID
Codec ID/Hint : XviD
Duration : 2 h 50 min
Bit rate : 1 086 kb/s
Width : 688 pixels
Height : 384 pixels
Display aspect ratio : 16:9
Frame rate : 23.976 (24000/1001) FPS
Color space : YUV
Chroma subsampling : 4:2:0
Bit depth : 8 bits
Scan type : Progressive
Compression mode : Lossy
Bits/(Pixel*Frame) : 0.172
Stream size : 1.29 GiB (89%)
Writing library : XviD 67
Audio
ID : 1
Format : MPEG Audio
Format version : Version 1
Format profile : Layer 3
Mode : Joint stereo
Mode extension : MS Stereo
Codec ID : 55
Codec ID/Hint : MP3
Duration : 2 h 50 min
Bit rate mode : Constant
Bit rate : 128 kb/s
Channel(s) : 2 channels
Sampling rate : 48.0 kHz
Compression mode : Lossy
Stream size : 156 MiB (10%)
Alignment : Aligned on interleaves
Interleave, duration : 42 ms (1.00 video frame)
Interleave, preload duratio : 504 ms
Writing library : LAME3.99r
Encoding settings : -m j -V 4 -q 2 -lowpass 17 -b 128

Скриншоты

If your ratio falls below 0.3, you will not be able to download Torrents! More about the rating.

[erzsebet.pl].t946.torrent
Torrent: Registered   [ 2017-12-02 17:26 ]

Download .torrent

Download

15 KB

Status: checked
Completed: 16 times
Size: 1.46 GB
terms.php

#1

02-Dec-2017 17:25

[Profile]  [PM] 
Display posts:    

You cannot post new topics in this forum
You cannot reply to topics in this forum
You cannot edit your posts in this forum
You cannot delete your posts in this forum
You cannot vote in polls in this forum
You cannot attach files in this forum
You can download files in this forum
User agreement
For copyright holders
Advertise on this site

Скачайте на халяву через торрент на трекере erzsebet.pl

!ATTENTION!
The site does not give electronic versions of products, and is engaged only in a collecting and cataloguing of the references sent and published at a forum by our readers. If you are the legal owner of any submitted material and do not wish that the reference to it was in our catalogue, contact us and we shall immediately remove her. Files for an exchange on tracker are given by users of a site, and the administration does not bear the responsibility for their maintenance. The request to not fill in the files protected by copyrights, and also files of the illegal maintenance!