МакКейб и миссис Миллер / McCabe & Mrs. Miller (Роберт Олтман / Robert Altman) [1971, США, драма, вестерн, BDRip] AVO (Юрий Сербин) + VO (Не опознан)

Reply to topic
DL-List and Torrent activity
Size:  1.46 GB   |    Registered:  3 years 3 months   |    Completed:  16 times

Seeder not seen: 3 years 3 months

 
   
 
 
Author Message

erzsebet.org ®

Longevity: 3 years 2 months

Posts: 47596

Post 02-Dec-2017 16:06

[Quote]

МакКейб и миссис Миллер / McCabe & Mrs. Miller
Страна: США
Жанр: драма, вестерн
Год выпуска: 1971
Продолжительность: 02:01:12
Перевод: Авторский (одноголосый закадровый) Юрий Сербин
Перевод 2: Одноголосый закадровый Не опознан
Субтитры: нет
Режиссер: Роберт Олтман / Robert Altman
В ролях: Уоррен Битти, Джули Кристи, Рене Обержонуа, Уильям Дивэйн, Джон Шак, Берт Ремсен, Шелли Дюваль, Кит Кэррэдин, Майкл Мерфи, Энтони Холлэнд
Описание: В Пресвитериан-Чёрч - шахтёрском поселении, где не было никаких развлечений, прибыл картёжник и человек, чьё прошлое покрыто тайной, некий МакКейб. Он сумел сделать состояние своим талантом в азартных играх, а также, как гласили легенды, однажды сумел застрелить бандита, запугавшего округу и умевшего уходить от властей. Заработанное МакКейб решил потратить здесь же: он стал владельцем игорного и публичного домов, а также салуна. Справляться одному в вопросах бизнеса непросто, поэтому герой подряжает в напарницы проститутку с опытом и деловой хваткой - миссис Миллер, раньше жившую в Сиэтле. У партнёров отношения переходят в любовную связь, но МакКейб продолжает платить пассии за интимные услуги, так как таковым был их начальный договор. Их бизнес-предприятие разрастается и привлекает внимание «инвесторов», однако на предложение продать заведения МакКейб отвечает отказам, либо выдвигает невыполнимые требования. Тогда к нему подсылают наёмников…
Сэмпл: http://multi-up.com/1175685
Качество видео: BDRip (Исходник BDRemux 1080p)
Формат видео: AVI
Видео: XviD 73, 720x304, (2,35:1), 23,976 fps, 1451 Кбит/с, 8 бит, 0.28 bit/pixel
Аудио: Русский (АС3, 1 ch (Front: С), 48,0 KHz, 128 Kbps) (Юрий Сербин)
Аудио 2: Русский (АС3, 1 ch (Front: С), 48,0 KHz, 128 Kbps) (Не опознан)

MediaInfo

Общее
Полное имя : D:\Видеофильмы\В и д е о\МакКейб и миссис Миллер (драма, вестерн 1971 год).avi
Формат : AVI
Формат/Информация : Audio Video Interleave
Размер файла : 1,46 Гбайт
Продолжительность : 2 ч. 1 м.
Общий поток : 1721 Кбит/сек
Программа кодирования : VirtualDubMod 1.5.10.3 | www.virtualdub-fr.org || (build 2550/release)
Библиотека кодирования : VirtualDubMod build 2550/release
Видео
Идентификатор : 0
Формат : MPEG-4 Visual
Профиль формата : Advanced [email protected]
Параметр BVOP формата : 2
Параметр QPel формата : Нет
Параметр GMC формата : Без точки перехода
Параметр матрицы формата : Выборочная
Идентификатор кодека : XVID
Идентификатор кодека/Подсказка : XviD
Продолжительность : 2 ч. 1 м.
Битрейт : 1451 Кбит/сек
Ширина : 720 пикселей
Высота : 304 пикселя
Соотношение сторон : 2,35:1
Частота кадров : 23,976 (23976/1000) кадра/сек
Цветовое пространство : YUV
Субдискретизация насыщенности : 4:2:0
Битовая глубина : 8 бит
Тип развёртки : Прогрессивная
Метод сжатия : С потерями
Бит/(Пиксели*Кадры) : 0.277
Размер потока : 1,23 Гбайт (84%)
Библиотека кодирования : XviD 73
Аудио #1
Идентификатор : 1
Формат : AC-3
Формат/Информация : Audio Coding 3
Расширение режима : CM (complete main)
Параметр Endianness формата : Big
Идентификатор кодека : 2000
Продолжительность : 2 ч. 1 м.
Вид битрейта : Постоянный
Битрейт : 128 Кбит/сек
Каналы : 1 канал
Расположение каналов : Front: C
Частота : 48,0 КГц
Частота кадров : 31,250 кадров/сек (1536 spf)
Метод сжатия : С потерями
Размер потока : 111 Мбайт (7%)
Выравнивание : Разделение по промежуткам
Продолжительность промежутка : 42 мс. (1,00 видеокадр)
Время предзагрузки промежутка : 500 мс.
Аудио #2
Идентификатор : 2
Формат : AC-3
Формат/Информация : Audio Coding 3
Расширение режима : CM (complete main)
Параметр Endianness формата : Big
Идентификатор кодека : 2000
Продолжительность : 2 ч. 1 м.
Вид битрейта : Постоянный
Битрейт : 128 Кбит/сек
Каналы : 1 канал
Расположение каналов : Front: C
Частота : 48,0 КГц
Частота кадров : 31,250 кадров/сек (1536 spf)
Метод сжатия : С потерями
Размер потока : 111 Мбайт (7%)
Выравнивание : Разделение по промежуткам
Продолжительность промежутка : 42 мс. (1,00 видеокадр)
Время предзагрузки промежутка : 500 мс.

Скриншот c названием фильма

Скриншоты

[erzsebet.pl].t95.torrent
Torrent: Registered [ 2017-12-02 16:06 ] · 426B73DB2648EF2A8475298697B2FC3B737D90D8

Download .torrent

Download

15 KB

Status: checked
Completed: 16 times
Size: 1.46 GB
terms.php
[Profile] [PM]
Display posts:    
Reply to topic

Current time is: 05-Mar 03:30

All times are UTC ± 0



You cannot post new topics in this forum
You cannot reply to topics in this forum
You cannot edit your posts in this forum
You cannot delete your posts in this forum
You cannot vote in polls in this forum
You cannot attach files in this forum
You can download files in this forum