Песчаное море / Sea of Sand (Гай Грин / Guy Green) [1958, Великобритания, военный, драма, DVDRip] Original Eng + Sub Rus

DL-List and Torrent activity
Size:  1.37 GB   |    Registered:  2 years 9 months   |    Completed:  16 times
Seeders:  3  
 
   
 
 

erzsebet.org ®

Longevity:
2 years 9 months
Posts:
47596

[Quote] 

Песчаное море / Sea of Sand Страна: Великобритания
Жанр: военный, драма
Год выпуска: 1958
Продолжительность: 01:34:53
Перевод: Субтитры enoeno
Субтитры: русские
Оригинальная аудиодорожка: английский
Режиссер: Гай Грин / Guy Green
В ролях: Ричард Аттенборо, Джон Грегсон, Майкл Крэйг, Бэрри Фостер, Рэй МакЭнэлли, Винсент Болл, Перси Херберт, Эндрю Фолдс, Джордж Мёрселл, Харольд Гудвин, Тони Тоунтон, Вульф Фрис, Джордж Микелл, Мартин Бенсон, Джо Уэдэм, Дермот Уолш
Описание: Северная Африка. В 1942 году, еще до битвы при Эль-Аламейне, в тылу германского Африканского корпуса фельдмаршала Эрвина Роммеля, действовали разведывательно-диверсионные подразделения британской армии, т.н. пустынные группы дальнего действия (LRDG), они занимались диверсиями, прерывая коммуникации и снабжение немецких и итальянских войск. Одной их таких групп LRDG, посланной уничтожить запасы немецкого бензина для танкового наступления Роммеля, и посвящается этот фильм.
Сэмпл: http://multi-up.com/1175562
Качество видео: DVDRip
Формат видео: AVI
Видео: XviD, 704x384 (1.85:1), 23.976 fps, 1870 kbps avg
Аудио: English AC3 Dolby Digital, 48 kHz, 2/0 (L,R) ch, 192.00 kbps avg
Формат субтитров: softsub (SRT)

MediaInfo

General
Complete name : F:\Sea.of.Sand.1958\Sea.of.Sand.1958.DVDRip.Rus.sub.avi
Format : AVI
Format/Info : Audio Video Interleave
File size : 1.37 GiB
Duration : 1 h 34 min
Overall bit rate : 2 071 kb/s
Writing application : VirtualDubMod 1.5.10.3 | www.virtualdub-fr.org || (build 2550/release)
Writing library : VirtualDubMod build 2550/release
Video
ID : 0
Format : MPEG-4 Visual
Format profile : Advanced [email protected]
Format settings, BVOP : 1
Format settings, QPel : No
Format settings, GMC : No warppoints
Format settings, Matrix : Custom
Codec ID : XVID
Codec ID/Hint : XviD
Duration : 1 h 34 min
Bit rate : 1 870 kb/s
Width : 704 pixels
Height : 384 pixels
Display aspect ratio : 1.85:1
Frame rate : 25.000 FPS
Color space : YUV
Chroma subsampling : 4:2:0
Bit depth : 8 bits
Scan type : Progressive
Compression mode : Lossy
Bits/(Pixel*Frame) : 0.277
Stream size : 1.24 GiB (90%)
Writing library : XviD 73
Audio
ID : 1
Format : AC-3
Format/Info : Audio Coding 3
Format settings, Endianness : Big
Codec ID : 2000
Duration : 1 h 34 min
Bit rate mode : Constant
Bit rate : 192 kb/s
Channel(s) : 2 channels
Channel positions : Front: L R
Sampling rate : 48.0 kHz
Frame rate : 31.250 FPS (1536 SPF)
Bit depth : 16 bits
Compression mode : Lossy
Stream size : 130 MiB (9%)
Alignment : Split accross interleaves
Interleave, duration : 40 ms (1.00 video frame)
Interleave, preload duratio : 500 ms
Service kind : Complete Main

Скриншоты

Фрагмент субтитров

1
00:00:19,320 --> 00:00:25,271
Ричард Аттенборо, Джон Грегсон, Майкл Крэйг
в фильме
2
00:00:26,502 --> 00:00:32,588
ПЕСЧАНОЕ МОРЕ
3
00:02:00,425 --> 00:02:03,132
режиссер Гай Грин
4
00:02:03,760 --> 00:02:06,240
В октябре 1942 года, еще
до битвы при Эль-Аламейне,
5
00:02:06,440 --> 00:02:08,736
в тылу противника действовали
пустынные группы дальнего действия (LRDG),
6
00:02:08,760 --> 00:02:11,240
cовершая диверсии, прерывали коммуникации
и снабжение Африканского корпуса Роммеля.
7
00:02:11,400 --> 00:02:14,216
Эти группы добровольцев действовали
обособленно среди Ливийской пустыни.
8
00:02:14,240 --> 00:02:16,200
Их методы были новаторскими,
9
00:02:16,360 --> 00:02:18,720
а результаты очень эффективными,
10
00:02:18,880 --> 00:02:21,480
благодаря мужеству тех немногих,
кто составлял их.
11
00:02:24,520 --> 00:02:26,680
Эта история посвящается
12
00:02:26,840 --> 00:02:30,200
офицерам и солдатам
пустынных групп дальнего действия (LRDG)
13
00:03:24,280 --> 00:03:26,160
- Вот вы и здесь, сэр.
- Хорошо, спасибо.
14
00:03:26,320 --> 00:03:28,560
Канцелярия командира там, сэр.
15
00:03:28,720 --> 00:03:29,760
Да, спасибо.
16
00:03:31,000 --> 00:03:33,200
Эй, Броуди. Ну как?
17
00:03:33,360 --> 00:03:34,840
Нет, я ничего не достал.
18
00:03:35,000 --> 00:03:36,000
Пошел ты.
19
00:03:36,040 --> 00:03:37,920
А что, бутылка пустая?
20
00:03:38,880 --> 00:03:40,000
Кстати говоря.
21
00:03:41,240 --> 00:03:42,960
- Откуда ты взял?
- Тише!
22
00:03:43,160 --> 00:03:44,640
Бренди. Арабский.

If your ratio falls below 0.3, you will not be able to download Torrents! More about the rating.

[erzsebet.pl].t96.torrent
Torrent: Registered   [ 2017-12-02 16:06 ]

Download .torrent

Download

14 KB

Status: checked
Completed: 16 times
Size: 1.37 GB
terms.php

#1

02-Dec-2017 16:06

[Profile]  [PM] 
Display posts:    

You cannot post new topics in this forum
You cannot reply to topics in this forum
You cannot edit your posts in this forum
You cannot delete your posts in this forum
You cannot vote in polls in this forum
You cannot attach files in this forum
You can download files in this forum
User agreement
For copyright holders
Advertise on this site

Скачайте на халяву через торрент на трекере erzsebet.pl

!ATTENTION!
The site does not give electronic versions of products, and is engaged only in a collecting and cataloguing of the references sent and published at a forum by our readers. If you are the legal owner of any submitted material and do not wish that the reference to it was in our catalogue, contact us and we shall immediately remove her. Files for an exchange on tracker are given by users of a site, and the administration does not bear the responsibility for their maintenance. The request to not fill in the files protected by copyrights, and also files of the illegal maintenance!