Медвежий дух. История Саймона Джексона / Spirit Bear: The Simon Jackson Story (Стефан Скайни / Stefan Scaini) [2005, Канада, драма, DVB] MVO (Студия Акцент) + Original (Eng)

DL-List and Torrent activity
Size:  1.97 GB   |    Registered:  2 years 9 months   |    Completed:  16 times
Seeders:  2  
 
   
 
 

erzsebet.org ®

Longevity:
2 years 9 months
Posts:
47596

[Quote] 

Медвежий дух. История Саймона Джексона
Spirit Bear: The Simon Jackson Story- Страна: Канада
Жанр: драма
Год выпуска: 2005
Продолжительность: 01:27:30
Перевод: Профессиональный (многоголосый закадровый) Студия "Акцент" по заказу Kino Polska
Субтитры: нет
Оригинальная аудиодорожка: английский
Режиссер: Стефан Скайни / Stefan Scaini
В ролях: Марк Рендалл / Mark Rendall (Simon Jackson), Грэм Грин / Graham Greene (Lloyd Blackburn, Ph.D.), Кэти Стюарт / Katie Stuart (Marcus Perdue), Эд Бегли мл. / Ed Begley Jr. (Frank Perdue), Катрин Дишер / Catherine Disher (Ms. Starr), Оуэн Рот / Owen Roth (Neil Lawrence)
Описание: Фильм снят по реальным событиям. 15-летний Саймон Джексон странный аутсайдер, который проводит много времени в одиночестве в необитаемых районах Британской Колумбии. В одном из его многочисленных приключений на него нападает опасное животное. Вдруг из ниоткуда появляется редкий белый кермодский медведь и спасает его. По возвращении домой он узнает, что эти великолепные существа находятся под угрозой исчезновения. Саймон клянется бороться за их выживание и сталкивается с противодействием мощной лесной промышленности и правительства провинции. Его смелые усилия объединяют всех: от принца Уильяма до Backstreet Boys.
Доп. информация: Intelsat 15 (85.0°E) Filmbox DVB-S
Награды: приз за лучший семейный телефильм Directors Guild of Canada 2006; 2 номинации на премию "Джемини" Академии кино и телевидения Канады 2007 (лучшие дети-актеры в юношеском фильме, лучшая оригинальная музыка).
Качество видео: DVB
Формат видео: MKV
Видео: MPEG Video 2, [email protected] (16:9), 25 fps, ~2958 kbps avg, 0.285 bit/pixel
Аудио 1: MPEG Audio 2, 2 ch, 48 kHz, 128 kbps - русский
Аудио 2: MPEG Audio 2, 2 ch, 48 kHz, 128 kbps - английский

MediaInfo

General
Unique ID : 223448156035440809787237377324264140882 (0xA81A8CAA3DC86FD9BCE4C1F2C28B3052)
Complete name : [apreder]Spirit_Bear_The_Simon_Jackson_Story(2005)DVB.mkv
Format : Matroska
Format version : Version 2
File size : 1.97 GiB
Duration : 1 h 27 min
Overall bit rate mode : Variable
Overall bit rate : 3 219 kb/s
Movie name : Spirit Bear: The Simon Jackson Story
Released date : 2005-00-00
Encoded date : UTC 2017-09-11 15:21:27
Writing application : mkvmerge v15.0.0 ('Duel with the Devil') 64-bit
Writing library : libebml v1.3.5 + libmatroska v1.4.5
Cover : Yes
Attachments : cover.jpg / small_cover.jpg
ACTOR : Mark Rendall, Graham Greene
DIRECTOR : Stefan Scaini
GENRE : Biography, Drama, Family
IMDB : tt0432088
KEYWORDS : erzsebet.org
LAW_RATING : 12+
Video
ID : 1
Format : MPEG Video
Format version : Version 2
Format profile : [email protected]
Format settings : CustomMatrix / BVOP
Format settings, BVOP : Yes
Format settings, Matrix : Custom
Format settings, GOP : M=4, N=12
Format settings, picture structure : Frame
Codec ID : V_MPEG2
Codec ID/Info : MPEG 1 or 2 Video
Duration : 1 h 27 min
Bit rate mode : Variable
Bit rate : 2 958 kb/s
Maximum bit rate : 10 000 kb/s
Width : 720 pixels
Height : 576 pixels
Display aspect ratio : 16:9
Frame rate mode : Constant
Frame rate : 25.000 FPS
Standard : PAL
Color space : YUV
Chroma subsampling : 4:2:0
Bit depth : 8 bits
Scan type : Interlaced
Scan order : Top Field First
Compression mode : Lossy
Bits/(Pixel*Frame) : 0.285
Time code of first frame : 07:48:20:21
Time code source : Group of pictures header
GOP, Open/Closed : Open
Stream size : 1.81 GiB (92%)
Default : Yes
Forced : No
Audio #1
ID : 2
Format : MPEG Audio
Format version : Version 1
Format profile : Layer 2
Codec ID : A_MPEG/L2
Codec ID/Hint : MP2
Duration : 1 h 27 min
Bit rate mode : Constant
Bit rate : 128 kb/s
Channel(s) : 2 channels
Sampling rate : 48.0 kHz
Frame rate : 41.667 FPS (1152 SPF)
Compression mode : Lossy
Stream size : 80.1 MiB (4%)
Language : Russian
Default : Yes
Forced : No
Audio #2
ID : 3
Format : MPEG Audio
Format version : Version 1
Format profile : Layer 2
Codec ID : A_MPEG/L2
Codec ID/Hint : MP2
Duration : 1 h 27 min
Bit rate mode : Constant
Bit rate : 128 kb/s
Channel(s) : 2 channels
Sampling rate : 48.0 kHz
Frame rate : 41.667 FPS (1152 SPF)
Compression mode : Lossy
Stream size : 80.1 MiB (4%)
Language : English
Default : No
Forced : No

Скриншот c названием фильма

Скриншоты


Резервные скриншоты


- [3'874]

If your ratio falls below 0.3, you will not be able to download Torrents! More about the rating.

[erzsebet.pl].t964.torrent
Torrent: Registered   [ 2017-12-02 17:26 ]

Download .torrent

Download

20 KB

Status: checked
Completed: 16 times
Size: 1.97 GB
terms.php

#1

02-Dec-2017 17:25

[Profile]  [PM] 
Display posts:    

You cannot post new topics in this forum
You cannot reply to topics in this forum
You cannot edit your posts in this forum
You cannot delete your posts in this forum
You cannot vote in polls in this forum
You cannot attach files in this forum
You can download files in this forum
User agreement
For copyright holders
Advertise on this site

Скачайте на халяву через торрент на трекере erzsebet.pl

!ATTENTION!
The site does not give electronic versions of products, and is engaged only in a collecting and cataloguing of the references sent and published at a forum by our readers. If you are the legal owner of any submitted material and do not wish that the reference to it was in our catalogue, contact us and we shall immediately remove her. Files for an exchange on tracker are given by users of a site, and the administration does not bear the responsibility for their maintenance. The request to not fill in the files protected by copyrights, and also files of the illegal maintenance!