Раздавленные скорбью / Crushed / Losing Grace (Майкл Вальверде / Michael Valverde) [2001, США, драма, SATRip] MVO

DL-List and Torrent activity
Size:  1.37 GB   |    Registered:  2 years 9 months   |    Completed:  16 times
Seeders:  2  
 
   
 
 

erzsebet.org ®

Longevity:
2 years 9 months
Posts:
47596

[Quote] 

Раздавленные скорбью / Crushed / Losing Grace
«Two brothers. One Secret. No more time»
Страна: США
Жанр: драма
Год выпуска: 2001
Продолжительность: 01:30:36
Перевод: Профессиональный (многоголосый закадровый)
Субтитры: нет
Режиссер: Майкл Вальверде / Michael Valverde
В ролях: Райан Браунинг
Матиас Фарнсворт
Ронни Кокс
Лесли Энн Уоррен
Тара Окс
Дженни Эндрюс
Лелэнд Л. Джонс
Лора-Шей Гриффин
Бет Энн Уоррен
Омар Дж. Дорси
Описание: Жизнь двух братьев летит под откос после внезапной смерти их любимой сестры. Братья совсем не похожи друг на друга, и трагедия по-разному сказывается на них. Один втягивается в контрабанду наркотиков, в то время как у другого по всем направлениям начинается черная полоса…
Доп. информация: Релиз
Сэмпл: https://yadi.sk/i/_GMjXM493MnscK
Качество видео: SATRip
Формат видео: AVI
Видео: 704x496 (1.42:1), 25 fps, XviD build 73 ~1959 kbps avg, 0.22 bit/pixel
Аудио: 48 kHz, AC3 Dolby Digital, 2/0 (L,R) ch, ~192 kbps

MediaInfo

Раздавленные скорбью Crushed aka Losing Grace (by Edich2).avi
Format : AVI
Format/Info : Audio Video Interleave
File size : 1.37 GiB
Duration : 1 h 30 min
Overall bit rate : 2 162 kb/s
Movie name : Раздавленные скорбью Crushed aka Losing Grace (2001)
Director : by Edich2
Writing application : VirtualDubMod 1.5.10.3 | www.virtualdub-fr.org || (build 2550/release)
Comment : erzsebet.org
Video
ID : 0
Format : MPEG-4 Visual
Format profile : Advanced [email protected]
Format settings, BVOP : 2
Format settings, QPel : No
Format settings, GMC : No warppoints
Format settings, Matrix : Custom
Codec ID : XVID
Codec ID/Hint : XviD
Duration : 1 h 30 min
Bit rate : 1 960 kb/s
Width : 704 pixels
Height : 496 pixels
Display aspect ratio : 1.419
Frame rate : 25.000 FPS
Color space : YUV
Chroma subsampling : 4:2:0
Bit depth : 8 bits
Scan type : Progressive
Compression mode : Lossy
Bits/(Pixel*Frame) : 0.225
Stream size : 1.24 GiB (91%)
Writing library : XviD 73
Audio
ID : 1
Format : AC-3
Format/Info : Audio Coding 3
Format settings, Endianness : Big
Codec ID : 2000
Duration : 1 h 30 min
Bit rate mode : Constant
Bit rate : 192 kb/s
Channel(s) : 2 channels
Channel positions : Front: L R
Sampling rate : 48.0 kHz
Frame rate : 31.250 FPS (1536 spf)
Bit depth : 16 bits
Compression mode : Lossy
Stream size : 124 MiB (9%)
Alignment : Split accross interleaves
Interleave, duration : 40 ms (1.00 video frame)
Interleave, preload duratio : 500 ms
Service kind : Complete Main

Скриншоты


If your ratio falls below 0.3, you will not be able to download Torrents! More about the rating.

[erzsebet.pl].t966.torrent
Torrent: Registered   [ 2017-12-02 17:26 ]

Download .torrent

Download

14 KB

Status: checked
Completed: 16 times
Size: 1.37 GB
terms.php

#1

02-Dec-2017 17:25

[Profile]  [PM] 
Display posts:    

You cannot post new topics in this forum
You cannot reply to topics in this forum
You cannot edit your posts in this forum
You cannot delete your posts in this forum
You cannot vote in polls in this forum
You cannot attach files in this forum
You can download files in this forum
User agreement
For copyright holders
Advertise on this site

Скачайте на халяву через торрент на трекере erzsebet.pl

!ATTENTION!
The site does not give electronic versions of products, and is engaged only in a collecting and cataloguing of the references sent and published at a forum by our readers. If you are the legal owner of any submitted material and do not wish that the reference to it was in our catalogue, contact us and we shall immediately remove her. Files for an exchange on tracker are given by users of a site, and the administration does not bear the responsibility for their maintenance. The request to not fill in the files protected by copyrights, and also files of the illegal maintenance!