Клан марсельцев / Марсельский клан / Приносящий беду / Il clan dei marsigliesi / La scoumoune (Хосе Джованни / Jose Giovanni) [1972, Франция, Италия, криминал, DVDRip-AVC] AVO (Володарский) + Original Fre

Reply to topic
DL-List and Torrent activity
Size:  2.12 GB   |    Registered:  3 years 3 months   |    Completed:  16 times

Seeder not seen: 3 years 3 months

 
   
 
 
Author Message

erzsebet.org ®

Longevity: 3 years 2 months

Posts: 47596

Post 02-Dec-2017 16:06

[Quote]

Марсельский клан / Il clan dei marsigliesi
Страна: Франция, Италия
Жанр: криминал
Год выпуска: 1972
Продолжительность: 1:41:19
Перевод: Авторский (одноголосый закадровый) Леонида Володарского с итальянского
Субтитры: нет
Оригинальная аудиодорожка: французский
Режиссер: Хосе Джованни / Jose Giovanni
В ролях: Жан-Поль Бельмондо /Jean-Paul Belmondo/, Клаудия Кардинале /Claudia Cardinale/, Мишель Константен /Michel Constantin/, Энрике Лучеро /Enrique Lucero/, Ален Мотэ /Alain Mottet/, Мишель Пейрелон /Michel Peyrelon/, Филип Бризар /Philippe Brizard/, Марк-Клод Местраль /Marie-Claude Mestral/, Жерар Депардье /Gerard Depardieu/, Андреа Ферреоль /Andrea Ferreol/...
Рецензия Михаила Иванова: Действие этой гангстерской истории начинается в июне 1934 года в Марселе. Бельмондо в роли удачливого преступника, приносящего беду всем, кто замышляет против него что-нибудь нехорошее. Стреляет он без промаха и убивает всех, пытающихся с ним расправиться. А со спины его всегда прикрывает мексиканец с шарманкой. Он подминает под себя казино, потом публичный дом, но после жестокой перестрелки с черными американцами попадает в тюрьму, где уже отбывает двадцатилетний срок его друг. Тюрьма, немецкая оккупация, разминирование пляжей для досрочного освобождения, и вот они снова на свободе, где их ждет верная Кардинале. Несколько метких выстрелов возвращают старые деловые предприятия, и он начинает прибирать к рукам новые. А на улицах уже новое, жадное племя молодых. Будет ли он, как и прежде, приносить беду врагам, или удача переменится? Сценарий Хосе Джованни по его же роману.
Доп. информация: исходник от caustiq; древнюю maxell оцифровал и дорожку Володарского подготовил karlll ; пришлось выкинуть около полутора кассетных минут из-за несоответствия версий
Качество видео: DVDRip-AVC ~Сэмпл~
Формат видео: MKV
Видео: MPEG4 (H264) 672x400 25fps 2609Kbps
Аудио 1: AC3 48KHz 2ch 192Kbps - рус
Аудио 2: AC3 48KHz 2ch 192Kbps - фр

MediaInfo

Формат : Matroska
Версия формата : Version 2
Размер файла : 2,12 Гбайт
Продолжительность : 1 ч. 41 м.
Общий поток : 2994 Кбит/сек
Дата кодирования : UTC 2017-11-08 15:54:20
Программа кодирования : mkvmerge v6.9.1 ('Blue Panther') 32bit built on Apr 18 2014 18:15:44
Библиотека кодирования : libebml v1.3.0 + libmatroska v1.4.1
Видео
Идентификатор : 1
Формат : AVC
Формат/Информация : Advanced Video Codec
Профиль формата : [email protected]
Параметр CABAC формата : Да
Параметр ReFrames формата : 7 кадров
Идентификатор кодека : V_MPEG4/ISO/AVC
Продолжительность : 1 ч. 41 м.
Битрейт : 2609 Кбит/сек
Ширина : 672 пикселя
Высота : 400 пикселей
Соотношение сторон : 1,680
Режим частоты кадров : Постоянный
Частота кадров : 25,000 кадров/сек
Цветовое пространство : YUV
Субдискретизация насыщенности : 4:2:0
Битовая глубина : 8 бит
Тип развёртки : Прогрессивная
Бит/(Пиксели*Кадры) : 0.388
Размер потока : 1,81 Гбайт (85%)
Заголовок : La scoumoune / Il clan dei marsigliesi (1972)
Библиотека кодирования : x264 core 148 r2638 7599210
Настройки программы : cabac=1 / ref=7 / deblock=1:-1:-1 / analyse=0x3:0x113 / me=umh / subme=9 / psy=1 / psy_rd=1.00:0.20 / mixed_ref=1 / me_range=24 / chroma_me=1 / trellis=2 / 8x8dct=1 / cqm=0 / deadzone=21,11 / fast_pskip=0 / chroma_qp_offset=-3 / threads=6 / lookahead_threads=1 / sliced_threads=0 / nr=0 / decimate=0 / interlaced=0 / bluray_compat=0 / constrained_intra=0 / bframes=7 / b_pyramid=2 / b_adapt=2 / b_bias=0 / direct=3 / weightb=1 / open_gop=0 / weightp=2 / keyint=250 / keyint_min=25 / scenecut=40 / intra_refresh=0 / rc_lookahead=50 / rc=2pass / mbtree=1 / bitrate=2609 / ratetol=1.0 / qcomp=0.60 / qpmin=0 / qpmax=69 / qpstep=4 / cplxblur=20.0 / qblur=0.5 / vbv_maxrate=14000 / vbv_bufsize=14000 / nal_hrd=none / filler=0 / ip_ratio=1.40 / aq=1:1.00
Язык : Italian
Default : Да
Forced : Нет
Аудио #1
Идентификатор : 2
Формат : AC-3
Формат/Информация : Audio Coding 3
Расширение режима : CM (complete main)
Параметр Endianness формата : Big
Идентификатор кодека : A_AC3
Продолжительность : 1 ч. 41 м.
Вид битрейта : Постоянный
Битрейт : 192 Кбит/сек
Каналы : 2 канала
Расположение каналов : Front: L R
Частота : 48,0 КГц
Битовая глубина : 16 бит
Метод сжатия : С потерями
Размер потока : 139 Мбайт (6%)
Заголовок : Володарский
Язык : Russian
Default : Да
Forced : Нет
Аудио #2
Идентификатор : 3
Формат : AC-3
Формат/Информация : Audio Coding 3
Расширение режима : CM (complete main)
Параметр Endianness формата : Big
Идентификатор кодека : A_AC3
Продолжительность : 1 ч. 41 м.
Вид битрейта : Постоянный
Битрейт : 192 Кбит/сек
Каналы : 2 канала
Расположение каналов : Front: L R
Частота : 48,0 КГц
Битовая глубина : 16 бит
Метод сжатия : С потерями
Размер потока : 139 Мбайт (6%)
Заголовок : francais
Язык : French
Default : Нет
Forced : Нет

Скриншоты

[erzsebet.pl].t98.torrent
Torrent: Registered [ 2017-12-02 16:06 ] · CB0FABAF924213B3AD36C60D90B8BE7FCA885CDB

Download .torrent

Download

11 KB

Status: checked
Completed: 16 times
Size: 2.12 GB
terms.php
[Profile] [PM]
Display posts:    
Reply to topic

Current time is: 05-Mar 03:56

All times are UTC ± 0



You cannot post new topics in this forum
You cannot reply to topics in this forum
You cannot edit your posts in this forum
You cannot delete your posts in this forum
You cannot vote in polls in this forum
You cannot attach files in this forum
You can download files in this forum