Чёрный ястреб / Black Hawk Down (Ридли Скотт / Ridley Scott) [2001, США, боевик, драма, военный, HDRip-AVC] [Расширенная версия / Extended Cut] [JPN Transfer] MVO (Киномания) + DVO (Гланц и Королёва) + AVO (Немахов) + Sub Rus Eng + Original Eng

DL-List and Torrent activity
Size:  4.36 GB   |    Registered:  2 years 9 months   |    Completed:  16 times
Seeders:  5  
 
   
 
 

erzsebet.org ®

Longevity:
2 years 9 months
Posts:
47596

[Quote] 

Чёрный ястреб / Падение Чёрного ястреба [Расширенная версия] / Black Hawk Down [Extended Cut] / JPN Transfer
-BDRemux-1080p | BDRip-1080p | HDRip-AVC | HDTVRip-AVC-Страна: США
Жанр: боевик, драма, военный, история
Год выпуска: 2001
Продолжительность: 02:31:52
Перевод: Профессиональный (многоголосый закадровый) Киномания
Перевод 2: Профессиональный (двухголосый закадровый) Гланц и Королёва
Перевод 3: Авторский (одноголосый закадровый) Ю.Немахов
Субтитры: русские, английские
Оригинальная аудиодорожка: английский
Режиссер: Ридли Скотт / Ridley Scott
В ролях: Джош Хартнетт, Эрик Бана, Эван МакГрегор, Том Сайзмор, Уиллиам Фичтнер, Сэм Шепард, Ивэн Бремнер, Чарли Хофхеймер, Том Харди, Том Гири, Джейсон Айзэкс, Брайан ван Холт, Джереми Пивен, Орландо Блум, Ким Коутс
Описание: Сомали, 1993 год. Страна вымирает от голода, число жертв превысило триста тысяч человек. Миротворческие силы ООН пытаются восстановить порядок и организовать поставки продовольствия. В помощь им Вашингтон выслал полтысячи человек из элитных подразделений американской армии, знаменитые отряды «Дельта» и армейских рейнджеров.
В городе Могадишо хозяйничает и творит беспредел полевой командир Айдид, убивая мирных граждан и отбирая гуманитарную помощь. В определенный момент орлы из Вашингтона решают провести операцию по захвату Айдида в его резиденции.
Молодой офицер, только что назначенный взводным; матерый сержант, ведущий колонну машин; казарменный писарь, не нюхавший пороху; экипажи сбитых вертолетов, вынужденных ждать подкрепления и эвакуации; пара солдат, которых забыли взять с собой при смене позиции; генерал, сидящий в штабе и наблюдающий со спутника, как погибают его солдаты…
Доп. информация: Расширенная версия (+8 минут)
Различия версий -> http://www.movie-censorship.com/report.php?ID=3596
Сравнение с раздачей: http://erzsebet.org/forum/viewtopic.php?t=3931127 -> http://screenshotcomparison.com/comparison/113611
Сэмпл: http://multi-up.com/1166795
Качество видео: HDRip-AVC [Black Hawk Down - Extend.Edtion (2001) HQ 1080p Blu-Ray x264 DTSHD-MA 5.1 -DDR.mkv]
Формат видео: MKV
Видео: MPEG-4 AVC/H.264 / 2317 kbps / 1024x432 / 23.976 fps
Аудио 1: MVO Киномания (Rus) / AC3 / 6 ch / 448 kbps / 48 kHz
Аудио 2: DVO Гланц и Королёва (Rus) / AC3 / 6 ch / 448 kbps / 48 kHz - отдельно
Аудио 3: AVO Немахов (Rus) / AC3 / 6 ch / 448 kbps / 48 kHz - отдельно
Аудио 4: Original (Eng) / AC3 / 6 ch / 448 kbps / 48 kHz - отдельно
Формат субтитров: softsub (SRT)
Доп. информация о субтитрах: Русские (full), Английские (full)
#Сохранены оригинальные чаптеры как на Blu-ray

Log

x264 [info]: frame I:1660 Avg QP:19.32 size: 76066
x264 [info]: frame P:52781 Avg QP:23.72 size: 20321
x264 [info]: frame B:129466 Avg QP:27.10 size: 5546

MediaInfo

General
Unique ID : 218443429281045822639603731286880612256 (0xA456AC95CBAF7721A8045E4AFBAAEFA0)
Complete name : J:\Torrents\Готовые релизы\Чёрный ястреб (2001) HDRip-AVC (Расширенная версия) [JPN Transfer]\Чёрный ястреб (2001) HDRip-AVC (Расширенная версия) [JPN Transfer].mkv
Format : Matroska
Format version : Version 2
File size : 2.93 GiB
Duration : 2 h 31 min
Overall bit rate : 2 766 kb/s
Movie name : Чёрный ястреб [Расширенная версия] / Black Hawk Down [Extended Cut] (2001) [JPN Transfer]
Encoded date : UTC 2017-09-01 19:49:54
Writing application : mkvmerge v5.5.0 ('Healer') built on Apr 24 2012 23:47:03
Writing library : libebml v1.2.3 + libmatroska v1.3.0
Attachments : Black Hawk Down.jpg
Video
ID : 1
Format : AVC
Format/Info : Advanced Video Codec
Format profile : [email protected]
Format settings, CABAC : Yes
Format settings, ReFrames : 8 frames
Codec ID : V_MPEG4/ISO/AVC
Duration : 2 h 31 min
Bit rate : 2 317 kb/s
Width : 1 024 pixels
Height : 432 pixels
Display aspect ratio : 2.40:1
Frame rate mode : Constant
Frame rate : 23.976 (24000/1001) FPS
Color space : YUV
Chroma subsampling : 4:2:0
Bit depth : 8 bits
Scan type : Progressive
Bits/(Pixel*Frame) : 0.218
Stream size : 2.40 GiB (82%)
Title : HDRip (AVC) / MPEG-4 AVC/H.264 / 2317 kbps / 1024x432 / 23.976 fps
Writing library : x264 core 146 r2538 121396c
Encoding settings : cabac=1 / ref=8 / deblock=1:0:0 / analyse=0x3:0x113 / me=umh / subme=10 / psy=1 / psy_rd=1.00:0.00 / mixed_ref=1 / me_range=32 / chroma_me=1 / trellis=2 / 8x8dct=1 / cqm=0 / deadzone=21,11 / fast_pskip=0 / chroma_qp_offset=-2 / threads=6 / lookahead_threads=1 / sliced_threads=0 / nr=0 / decimate=1 / interlaced=0 / bluray_compat=0 / constrained_intra=0 / bframes=9 / b_pyramid=2 / b_adapt=2 / b_bias=0 / direct=3 / weightb=1 / open_gop=0 / weightp=2 / keyint=250 / keyint_min=23 / scenecut=40 / intra_refresh=0 / rc_lookahead=50 / rc=2pass / mbtree=1 / bitrate=2317 / ratetol=1.0 / qcomp=0.60 / qpmin=0 / qpmax=69 / qpstep=4 / cplxblur=20.0 / qblur=0.5 / vbv_maxrate=14000 / vbv_bufsize=14000 / nal_hrd=none / filler=0 / ip_ratio=1.40 / aq=1:1.00
Language : Russian
Default : Yes
Forced : Yes
Audio
ID : 2
Format : AC-3
Format/Info : Audio Coding 3
Mode extension : CM (complete main)
Format settings, Endianness : Big
Codec ID : A_AC3
Duration : 2 h 31 min
Bit rate mode : Constant
Bit rate : 448 kb/s
Channel(s) : 6 channels
Channel positions : Front: L C R, Side: L R, LFE
Sampling rate : 48.0 kHz
Frame rate : 31.250 FPS (1536 spf)
Bit depth : 16 bits
Compression mode : Lossy
Stream size : 487 MiB (16%)
Title : MVO Киномания (Rus) / AC3 / 6 ch / 448 kbps / 48 kHz
Language : Russian
Default : Yes
Forced : Yes
Text #1
ID : 3
Format : UTF-8
Codec ID : S_TEXT/UTF8
Codec ID/Info : UTF-8 Plain Text
Title : Full (Rus) / S_TEXT/UTF8
Language : Russian
Default : No
Forced : No
Text #2
ID : 4
Format : UTF-8
Codec ID : S_TEXT/UTF8
Codec ID/Info : UTF-8 Plain Text
Title : Full (Eng) / S_TEXT/UTF8
Language : English
Default : No
Forced : No
Menu
00:00:00.000 : en:Start
00:21:49.683 : en:The Plan
00:31:41.358 : en:X Marks The Spot
00:37:21.448 : en:Irene
00:39:20.984 : en:Early Warning System
00:43:26.562 : en:The Assault Begins
00:46:23.698 : en:"Man Down!"
00:52:24.516 : en:KIA
00:54:05.117 : en:Super Six One Down
01:02:19.444 : en:Chalk Four Advances
01:07:27.835 : en:Evacuating The Wounded
01:10:23.136 : en:The Roadblock
01:14:14.784 : en:Search & Rescue Team
01:15:51.088 : en:Super Six Four Down
01:28:37.896 : en:The Lost Convoy
01:30:27.380 : en:Two-Man Rescue Squad
01:36:28.783 : en:Crash Site Overrun
01:43:36.585 : en:Sniper!
01:48:50.733 : en:Durant The Hostage
01:50:52.563 : en:Clamping The Artery
01:53:21.336 : en:Night Battle
02:02:19.999 : en:Little Bird Attack
02:06:21.991 : en:The Rescue Convoy Arrives
02:08:06.846 : en:Removing Walcott's Body
02:09:26.217 : en:Rolling Out
02:11:29.757 : en:Running The Mogadishu Mile
02:14:15.631 : en:Return To Pakistan Stadium
02:20:14.364 : en:American Heroes

Скриншот c названием фильма

Скриншоты

-

Обновление 02 сентября 2017

Новый рип с лучшими настройками видео и аудио
AVO Володарский и AVO Королёв удалены. Вместо них добавлен DVO Гланц и Королёва
Цитата:
  • Звуковая дорожка №1 взята из раздачи пользователя raikkonen1977
  • Исходник звуковой дорожки №2 взят из раздачи Bleck Havk Dawn 2001 Extend Edtion
  • Исходник звуковой дорожки №3 предоставлен пользователем RemuxMKV
  • Субтитры взяты из раздачи пользователя zhutky

If your ratio falls below 0.3, you will not be able to download Torrents! More about the rating.

[erzsebet.pl].t988.torrent
Torrent: Registered   [ 2017-12-02 17:26 ]

Download .torrent

Download

12 KB

Status: checked
Completed: 16 times
Size: 4.36 GB
terms.php

#1

02-Dec-2017 17:25

[Profile]  [PM] 
Display posts:    

You cannot post new topics in this forum
You cannot reply to topics in this forum
You cannot edit your posts in this forum
You cannot delete your posts in this forum
You cannot vote in polls in this forum
You cannot attach files in this forum
You can download files in this forum
User agreement
For copyright holders
Advertise on this site

Скачайте на халяву через торрент на трекере erzsebet.pl

!ATTENTION!
The site does not give electronic versions of products, and is engaged only in a collecting and cataloguing of the references sent and published at a forum by our readers. If you are the legal owner of any submitted material and do not wish that the reference to it was in our catalogue, contact us and we shall immediately remove her. Files for an exchange on tracker are given by users of a site, and the administration does not bear the responsibility for their maintenance. The request to not fill in the files protected by copyrights, and also files of the illegal maintenance!