Джонни Тремейн / Johnny Tremain (Роберт Стивенсон / Robert Stevenson) [1957, США, приключения, военный, исторический, экранизация, DVDRip] Original Eng + Sub Rus

DL-List and Torrent activity
Size:  1.15 GB   |    Registered:  2 years 9 months   |    Completed:  16 times
Seeders:  9  
 
   
 
 

erzsebet.org ®

Longevity:
2 years 9 months
Posts:
47596

[Quote] 

Джонни Тремейн / Johnny Tremain Страна: США, Walt Disney Productions
Жанр: приключения, военный, исторический, экранизация
Год выпуска: 1957
Продолжительность: 01:20:29
Перевод: Субтитры enoeno
Субтитры: русские
Оригинальная аудиодорожка: английский
Режиссер: Роберт Стивенсон / Robert Stevenson
В ролях: Хэл Стэмастер, Луана Паттен, Джефф Йорк, Себастьян Кабо, Вирджиния Кристин, Ричард Беймер, Расти Лэйн, Уолтер Сэнд, Уит Бисселл, Уолтер Кой, Уилл Райт, Джеффри Тун, Ральф Клэнтон, Ламсден Хейр, Гэвин Гордон, Джон Клоуз, Сирил Делеванти, Роберт Фулк, Даббс Грир, Чак Хэмилтон, Робин Хьюз, Хаус Питерс мл., Чарльз Смит, Роберт Стивенсон
Описание: Фильм снят по одноимённой исторической повести американской писательницы Эстер Форбс. Середина XVIII века, Бостон, крупнейший американский порт, накануне Войны за независимость. Джонни Тремейн – мальчишка. которому исполнилось всего 14 лет, он подмастерье у серебряных дел мастера. Хозяин его стар, и доверяет Джонни часто выполнять все самые сложные заказы. Герои фильма, и прежде всего Джонни Тремейн, оказываются свидетелями таких известных исторических событий, как «Бостонское чаепитие» 16 декабря 1773 года , принимают участие в первых вооружённых столкновениях в ходе Войны за независимость США (сражения при Лексингтоне и Конкорде 19 апреля 1775 года).
Доп. информация: Рип из сети.
Сэмпл: http://multi-up.com/1175481
Качество видео: DVDRip
Формат видео: AVI
Видео: XviD, 640x480 (4:3), 23.976 fps, 1850 kbps avg
Аудио: English AC3 Dolby Digital, 48 kHz, 2/0 (L,R) ch, 192.00 kbps avg
Формат субтитров: softsub (SRT)

MediaInfo

General
Complete name : F:\Johnny.Tremain_1957\Johnny.Tremain.1957.DVDRip.Rus.sub.avi
Format : AVI
Format/Info : Audio Video Interleave
File size : 1.15 GiB
Duration : 1 h 20 min
Overall bit rate : 2 052 kb/s
Writing application : VirtualDubModRus 1.5.10.2 (build 2542/release)
Writing library : VirtualDubMod build 2542/release
Video
ID : 0
Format : MPEG-4 Visual
Format profile : Advanced [email protected]
Format settings, BVOP : 1
Format settings, QPel : No
Format settings, GMC : No warppoints
Format settings, Matrix : Custom
Codec ID : XVID
Codec ID/Hint : XviD
Duration : 1 h 20 min
Bit rate : 1 851 kb/s
Width : 640 pixels
Height : 480 pixels
Display aspect ratio : 4:3
Frame rate : 23.976 (24000/1001) FPS
Color space : YUV
Chroma subsampling : 4:2:0
Bit depth : 8 bits
Scan type : Progressive
Compression mode : Lossy
Bits/(Pixel*Frame) : 0.251
Stream size : 1.04 GiB (90%)
Writing library : XviD 73
Audio
ID : 1
Format : AC-3
Format/Info : Audio Coding 3
Format settings, Endianness : Big
Codec ID : 2000
Duration : 1 h 20 min
Bit rate mode : Constant
Bit rate : 192 kb/s
Channel(s) : 2 channels
Channel positions : Front: L R
Sampling rate : 48.0 kHz
Frame rate : 31.250 FPS (1536 SPF)
Bit depth : 16 bits
Compression mode : Lossy
Stream size : 111 MiB (9%)
Alignment : Split accross interleaves
Interleave, duration : 42 ms (1.00 video frame)
Interleave, preload duration : 500 ms
Service kind : Complete Main

Скриншоты

Фрагмент субтитров

898
00:58:43,908 --> 00:58:47,537
Скажите тогда, за что
собираемся мы драться?
899
00:58:47,612 --> 00:58:50,624
Мы будем драться за права американцев!
Мы не дадим Англии грабить нас налогами!
900
00:58:50,648 --> 00:58:54,277
Есть кое-что поважнее,
чем бумажники наших американских граждан.
901
00:58:54,352 --> 00:58:56,718
- Но что?
- Права англичан на всём земном шаре.
902
00:58:56,787 --> 00:59:00,951
Ах...! Это идея.
903
00:59:01,025 --> 00:59:04,927
Эта идея, которая придаст
больше блеска в глазах молодежи.
904
00:59:04,996 --> 00:59:07,988
Права, да.
Почему же ограничиваться англичанами?
905
00:59:08,065 --> 00:59:11,557
Разве Земля так мала, что на ней
есть место только для одного человека?
906
00:59:11,636 --> 00:59:16,039
Или мы можем бороться за всех
мужчин, женщин и детей всего мира?
907
00:59:16,107 --> 00:59:20,237
Ради этого мы можем начать войну.
Чтобы свергуть тиранию.
908
00:59:20,311 --> 00:59:23,940
Несколько человек не могут
обладать властью над тысячами.
909
00:59:24,015 --> 00:59:26,711
Везде, где светит солнце,
910
00:59:26,784 --> 00:59:30,015
человек должен сам выбирать,
кому отдавать власть.
911
00:59:30,087 --> 00:59:32,885
Права англичан, говоришь, парень.
912
00:59:32,957 --> 00:59:35,517
Битвы, в которых мы
победим худшее в Англии,
913
00:59:35,593 --> 00:59:38,460
принесут самое лучшее Англии
до конца времен.
914
00:59:38,529 --> 00:59:41,430
Каждый раз, когда мы убиваем
британского солдата,
915
00:59:41,499 --> 00:59:44,939
мы сражаемся за его же права, которыми он
будет наслаждаться через 100 лет после нас...
916
00:59:45,002 --> 00:59:48,961
Французские крестьяне,
русские крепостные
917
00:59:49,040 --> 00:59:52,066
увидят свободу, как некое новое солнце,
поднимающееся с запада.
918
00:59:52,143 --> 00:59:56,273
Ради этого мы будем сражаться. Эти естественные
права Господь бог дал всем и каждому,
919
00:59:56,347 --> 00:59:58,338
самому убогому из нас...
920
00:59:59,183 --> 01:00:01,413
и даже сумасшедшему.
921
01:00:07,224 --> 01:00:10,921
Говорят что я потерял свой ум после того, как
чиновник на таможне стукнул меня по голове.
922
01:00:12,096 --> 01:00:14,136
Ведь ты так думаешь, мистер Сэм Адамс,
не правда ли?
923
01:00:14,165 --> 01:00:16,395
Нет, сэр.
924
01:00:16,467 --> 01:00:20,836
Возможно, что иные из
нас отдадут свой разум,
925
01:00:20,905 --> 01:00:23,032
Иные - имущество.
926
01:00:23,107 --> 01:00:26,338
У кого есть имущество, подумайте об этом.
927
01:00:26,410 --> 01:00:29,675
Золото, драгоценности,
и красивые большие дома.
928
01:00:29,747 --> 01:00:32,215
Жалко, не так ли?
929
01:00:32,283 --> 01:00:37,152
Вот ты, друг Поль Ривер.
Господь создал тебя для серебра...
930
01:00:37,221 --> 01:00:39,212
а не для войны.
931
01:00:39,290 --> 01:00:42,418
Время лить серебро,
и время лить пушки.
932
01:00:42,493 --> 01:00:45,394
Если это и не сказано в священном писании,
то по недосмотру.

If your ratio falls below 0.3, you will not be able to download Torrents! More about the rating.

[erzsebet.pl].t99.torrent
Torrent: Registered   [ 2017-12-02 16:06 ]

Download .torrent

Download

12 KB

Status: checked
Completed: 16 times
Size: 1.15 GB
terms.php

#1

02-Dec-2017 16:06

[Profile]  [PM] 
Display posts:    

You cannot post new topics in this forum
You cannot reply to topics in this forum
You cannot edit your posts in this forum
You cannot delete your posts in this forum
You cannot vote in polls in this forum
You cannot attach files in this forum
You can download files in this forum
User agreement
For copyright holders
Advertise on this site

Скачайте на халяву через торрент на трекере erzsebet.pl

!ATTENTION!
The site does not give electronic versions of products, and is engaged only in a collecting and cataloguing of the references sent and published at a forum by our readers. If you are the legal owner of any submitted material and do not wish that the reference to it was in our catalogue, contact us and we shall immediately remove her. Files for an exchange on tracker are given by users of a site, and the administration does not bear the responsibility for their maintenance. The request to not fill in the files protected by copyrights, and also files of the illegal maintenance!