Особый Эд / Special Ed (Джеффри Фелпс / Jeffrey Phelps) [2005, США, драма, DVB] DVO (Студия Акцент) + Original (Eng)

DL-List and Torrent activity
Size:  1.76 GB   |    Registered:  2 years 9 months   |    Completed:  16 times
Seeders:  2  
 
   
 
 

erzsebet.org ®

Longevity:
2 years 9 months
Posts:
47596

[Quote] 

Особый Эд
Special Ed- Страна: США
Жанр: драма
Год выпуска: 2005
Продолжительность: 01:48:44
Перевод: Профессиональный (двухголосый закадровый) Студия "Акцент" по заказу Kino Polska
Субтитры: нет
Оригинальная аудиодорожка: английский
Режиссер: Джеффри Фелпс / Jeffrey Phelps
В ролях: Грег Джерманн / Greg Germann (David), Д.У. Моффетт / D.W. Moffett (Sonny), Билл Коббс / Bill Cobbs (Lou), Конни Бриттон / Connie Britton (Abi), Тревор Райт / Trevor Wright (Mitch), Кристофер Ним / Christopher Neame (Dr. Davis)
Описание: Врач-онколог Давид Эдвард разрабатывает экспериментальную программу лечения рака. Он посвятил работе всю свою жизнь, верит, что каждый заслуживает свой шанс. Однажды в его кабинет приходит Сонни Колинз. Идеально подходит к программе доктора Эдварда, но врач отказывает его лечить из-за его вызывающего и безнравственного поведения. На самом деле Эдвард скрыто мечтает быть таким, как Сонни. Врач вскоре поменяет своё мнение и Сонни становится его пациентом. Мужчины могут многому друг у друга научиться.
Доп. информация: Intelsat 15 (85.0°E) Filmbox DVB-S
Качество видео: DVB
Формат видео: MKV
Видео: MPEG Video 2, [email protected] (16:9), 25 fps, ~2057 kbps avg, 0.198 bit/pixel
Аудио 1: MPEG Audio 2, 2 ch, 48 kHz, 128 kbps - русский
Аудио 2: MPEG Audio 2, 2 ch, 48 kHz, 128 kbps - английский

MediaInfo

General
Unique ID : 230515223550266136871431419942966345623 (0xAD6B9DFEAC634103B24962D345C33F97)
Complete name : [apreder]Special_Ed(2005)DVB.mkv
Format : Matroska
Format version : Version 2
File size : 1.76 GiB
Duration : 1 h 48 min
Overall bit rate mode : Variable
Overall bit rate : 2 319 kb/s
Movie name : Special Ed
Released date : 2005-00-00
Encoded date : UTC 2017-09-01 08:24:07
Writing application : mkvmerge v15.0.0 ('Duel with the Devil') 64-bit
Writing library : libebml v1.3.5 + libmatroska v1.4.5
Cover : Yes
Attachments : cover.jpg / small_cover.jpg
ACTOR : Greg Germann, D.W. Moffett
DIRECTOR : Jeffrey Phelps
GENRE : Drama
IMDB : tt0398340
KEYWORDS : erzsebet.org
LAW_RATING : 16+
Video
ID : 1
Format : MPEG Video
Format version : Version 2
Format profile : [email protected]
Format settings, BVOP : Yes
Format settings, Matrix : Custom
Format settings, GOP : M=4, N=12
Format settings, picture structure : Frame
Codec ID : V_MPEG2
Codec ID/Info : MPEG 1 or 2 Video
Duration : 1 h 48 min
Bit rate mode : Variable
Bit rate : 2 057 kb/s
Maximum bit rate : 10 000 kb/s
Width : 720 pixels
Height : 576 pixels
Display aspect ratio : 16:9
Frame rate mode : Constant
Frame rate : 25.000 FPS
Standard : PAL
Color space : YUV
Chroma subsampling : 4:2:0
Bit depth : 8 bits
Scan type : Interlaced
Scan order : Top Field First
Compression mode : Lossy
Bits/(Pixel*Frame) : 0.198
Time code of first frame : 00:00:00:00
Time code source : Group of pictures header
GOP, Open/Closed : Open
Stream size : 1.56 GiB (89%)
Default : Yes
Forced : No
Audio #1
ID : 2
Format : MPEG Audio
Format version : Version 1
Format profile : Layer 2
Codec ID : A_MPEG/L2
Codec ID/Hint : MP2
Duration : 1 h 48 min
Bit rate mode : Constant
Bit rate : 128 kb/s
Channel(s) : 2 channels
Sampling rate : 48.0 kHz
Frame rate : 41.667 FPS (1152 SPF)
Compression mode : Lossy
Stream size : 99.5 MiB (6%)
Language : Russian
Default : Yes
Forced : No
Audio #2
ID : 3
Format : MPEG Audio
Format version : Version 1
Format profile : Layer 2
Codec ID : A_MPEG/L2
Codec ID/Hint : MP2
Duration : 1 h 48 min
Bit rate mode : Constant
Bit rate : 128 kb/s
Channel(s) : 2 channels
Sampling rate : 48.0 kHz
Frame rate : 41.667 FPS (1152 SPF)
Compression mode : Lossy
Stream size : 99.5 MiB (6%)
Language : English
Default : No
Forced : No

Скриншот c названием фильма

Скриншоты


Резервные скриншоты


- [3'847]

If your ratio falls below 0.3, you will not be able to download Torrents! More about the rating.

[erzsebet.pl].t990.torrent
Torrent: Registered   [ 2017-12-02 17:26 ]

Download .torrent

Download

18 KB

Status: checked
Completed: 16 times
Size: 1.76 GB
terms.php

#1

02-Dec-2017 17:25

[Profile]  [PM] 
Display posts:    

You cannot post new topics in this forum
You cannot reply to topics in this forum
You cannot edit your posts in this forum
You cannot delete your posts in this forum
You cannot vote in polls in this forum
You cannot attach files in this forum
You can download files in this forum
User agreement
For copyright holders
Advertise on this site

Скачайте на халяву через торрент на трекере erzsebet.pl

!ATTENTION!
The site does not give electronic versions of products, and is engaged only in a collecting and cataloguing of the references sent and published at a forum by our readers. If you are the legal owner of any submitted material and do not wish that the reference to it was in our catalogue, contact us and we shall immediately remove her. Files for an exchange on tracker are given by users of a site, and the administration does not bear the responsibility for their maintenance. The request to not fill in the files protected by copyrights, and also files of the illegal maintenance!