Создание из Черной лагуны в 3Д / Creature from the Black Lagoon 3D (Джек Арнольд / Jack Arnold) [1954, Боевик, Приключения, Ужасы, BDRip, 1080p] OverUnder / Вертикальная стереопара (MVO)

DL-List and Torrent activity
Size:  20.67 GB   |    Registered:  17 days   |    Completed:  16 times
Seeders:  1  
 
   
 
 

erzsebet ®

Longevity:
9 years 7 months
Posts:
625365
Location:
Венгрия

[Quote] 

Создание из Черной лагуны / Creature from the Black Lagoon
Год выпуска: 1954
Страна: США
Жанр: Боевик, Приключения, Ужасы
Продолжительность: 01:19:14
Перевод: Профессиональный (многоголосый закадровый)
Русские субтитры: нет
Режиссер: Джек Арнольд / Jack
В ролях: Ричард Карлсон,Джули Адамс,Ричард Дэннинг,Антонио Морено,Нестор Пайва
Уит Бисселл,Bernie Gozier,Генри А. Эскаланте,Рику Браунинг,Бен Чэпма.
Описание: Учёные, проводившие свои изыскания в дебрях Амазонки, наткнулись в одной из известняковых пород на фрагмент тела неизвестного науке существа – лапу. Она была когтистая, и после лабораторных исследований было выяснено, что принадлежала земноводному существу – амфибии, возраст которого датируется миллионами лет. За экспедицией дело не стало, и решено было найти другие останки этого существа. Но великая Амазонка подготовила для них вовсе не ископаемые останки, а вполне жизнеспособное чудище, которому совсем не понравилось, что кто-то забрался в его владения и начинает изучать его родственничков…
Сэмпл: http://sendfile.su/1563942
Качество: BDrip
Контейнер: MKV
Формат 3D: OverUnder / Вертикальная стереопара
Порядок ракурсов: левый ракурс первый
Видео кодек: x264
Аудио кодек: AC3
Видео: AVC / [email protected] / 23,976 fps / 1920х2160 / 36,0 Мбит/сек
Аудио: Русский / AC3 / 48 KHz / 2.0 ch / 192 Кбит/сек(MVO - неизвестное) (псевдостерео)
Аудио 2: Английский / AC3 / 48 KHz / 2.0 ch / 448 Кбит/сек
ВНИМАНИЕ ! На встроенных ТВ-плеерах работать не будет!!!
ТВ Samsung в названии которого есть надпись Ultra HD , и LG Ultra HD 800 серии, LG C6P, Xiaomi Mi TV 2 воспроизводят полные стереопары встроенными плеерами
Железные плееры на которых воспроизводятся полные стереопары:Popcorn C-200, Popcorn a-400, Dune HD Smart D1 , Dune HD DUO , Dune HD Smart H1 , Dune HD Smart B1 , Dune HD Max , Dune HD TV-303D, Dune HD TV-102, Dune HD Base 3D, Philips HMP7001, Aura HD, MECOOL BB2, Zidoo x9s, Lake I Cloud, MiBox 3
Чтобы изображение было на весь экран в плеере выставляем, если рип 1920х1600 - то выставляем 2.35:1 , если 1920х2160 - то выставляем 16:9

MediaInfo

Общее
Уникальный идентификатор : 241857966895893465472463427109106368922 (0xB5F4266B34DF0BCFB1195E774F92419A)
Полное имя : E:\видео\Creature from the Black Lagoon.Rip by SeRoGa00.mkv
Формат : Matroska
Версия формата : Version 2
Размер файла : 20,7 Гбайт
Продолжительность : 1 ч. 19 м.
Общий поток : 37,3 Мбит/сек
Дата кодирования : UTC 2020-06-04 12:53:23
Программа кодирования : mkvmerge v3.4.0 ('Rapunzel') сборка от May 15 2010 09:38:20
Библиотека кодирования : libebml v0.8.0 + libmatroska v0.9.0
Видео
Идентификатор : 1
Формат : AVC
Формат/Информация : Advanced Video Codec
Профиль формата : [email protected]
Параметр CABAC формата : Да
Параметр ReFrames формата : 4 кадра
Идентификатор кодека : V_MPEG4/ISO/AVC
Продолжительность : 1 ч. 19 м.
Битрейт : 36,0 Мбит/сек
Ширина : 1920 пикселей
Высота : 2160 пикселей
Соотношение сторон : 0,889
Частота кадров : 23,976 кадра/сек
Цветовое пространство : YUV
Субдискретизация насыщенности : 4:2:0
Битовая глубина : 8 бит
Тип развёртки : Прогрессивная
Бит/(Пиксели*Кадры) : 0.362
Размер потока : 19,9 Гбайт (96%)
Заголовок : Rip by SeRoGa00
Библиотека кодирования : x264 core 157 r2969 d4099dd
Настройки программы : cabac=1 / ref=4 / deblock=1:-3:-3 / analyse=0x3:0x113 / me=umh / subme=10 / psy=1 / psy_rd=1.00:0.15 / mixed_ref=1 / me_range=24 / chroma_me=1 / trellis=2 / 8x8dct=1 / cqm=0 / deadzone=21,11 / fast_pskip=1 / chroma_qp_offset=-3 / threads=18 / lookahead_threads=6 / sliced_threads=0 / nr=0 / decimate=0 / interlaced=0 / bluray_compat=0 / constrained_intra=0 / bframes=10 / b_pyramid=2 / b_adapt=2 / b_bias=0 / direct=3 / weightb=1 / open_gop=0 / weightp=2 / keyint=250 / keyint_min=23 / scenecut=40 / intra_refresh=0 / rc_lookahead=60 / rc=crf / mbtree=1 / crf=16.5 / qcomp=0.60 / qpmin=10 / qpmax=69 / qpstep=4 / vbv_maxrate=40000 / vbv_bufsize=40000 / crf_max=0.0 / nal_hrd=none / filler=0 / ip_ratio=1.40 / aq=1:1.00
Язык : English
Default : Нет
Forced : Нет
Аудио #1
Идентификатор : 2
Формат : AC-3
Формат/Информация : Audio Coding 3
Расширение режима : CM (complete main)
Параметр Endianness формата : Big
Идентификатор кодека : A_AC3
Продолжительность : 1 ч. 19 м.
Вид битрейта : Постоянный
Битрейт : 192 Кбит/сек
Каналы : 2 канала
Расположение каналов : Front: L R
Частота : 48,0 КГц
Битовая глубина : 16 бит
Метод сжатия : С потерями
Размер потока : 109 Мбайт (1%)
Язык : Russian
Default : Да
Forced : Нет
Аудио #2
Идентификатор : 3
Формат : AC-3
Формат/Информация : Audio Coding 3
Расширение режима : CM (complete main)
Параметр Endianness формата : Big
Идентификатор кодека : A_AC3
Продолжительность : 1 ч. 19 м.
Вид битрейта : Постоянный
Битрейт : 448 Кбит/сек
Каналы : 2 канала
Расположение каналов : Front: L R
Частота : 48,0 КГц
Битовая глубина : 16 бит
Метод сжатия : С потерями
Размер потока : 254 Мбайт (1%)
Язык : English
Default : Нет
Forced : Нет
Меню
00:00:00.000 : en:00:00:00.000
00:01:10.819 : en:00:01:10.819
00:04:07.038 : en:00:04:07.038
00:10:26.917 : en:00:10:26.917
00:15:50.908 : en:00:15:50.908
00:20:19.968 : en:00:20:19.968
00:27:55.964 : en:00:27:55.964
00:32:21.480 : en:00:32:21.480
00:34:11.507 : en:00:34:11.507
00:43:01.286 : en:00:43:01.286
00:47:04.278 : en:00:47:04.278
00:51:21.411 : en:00:51:21.411
00:52:21.471 : en:00:52:21.471
00:55:31.286 : en:00:55:31.286
00:58:55.989 : en:00:58:55.989
01:14:17.411 : en:01:14:17.411
01:16:49.186 : en:01:16:49.186
01:18:45.011 : en:01:18:45.011

Скриншоты








If your ratio falls below 0.3, you will not be able to download Torrents! More about the rating.

[erzsebet.pl].t991707.torrent
Torrent: Registered   [ 2020-07-29 02:32 ]

Download .torrent

Download

104 KB

Status: checked
Completed: 16 times
Size: 20.67 GB
terms.php

#1

29-Jul-2020 02:31

[Profile]  [PM] 
Display posts:    

You cannot post new topics in this forum
You cannot reply to topics in this forum
You cannot edit your posts in this forum
You cannot delete your posts in this forum
You cannot vote in polls in this forum
You cannot attach files in this forum
You can download files in this forum
User agreement
For copyright holders
Advertise on this site

Скачайте на халяву через торрент на трекере erzsebet.pl

!ATTENTION!
The site does not give electronic versions of products, and is engaged only in a collecting and cataloguing of the references sent and published at a forum by our readers. If you are the legal owner of any submitted material and do not wish that the reference to it was in our catalogue, contact us and we shall immediately remove her. Files for an exchange on tracker are given by users of a site, and the administration does not bear the responsibility for their maintenance. The request to not fill in the files protected by copyrights, and also files of the illegal maintenance!