Гонорар за предательство / La Mazzetta (Серджио Корбуччи / Sergio Corbucci) [1978, Италия, Комедия, DVDRip] VO (Urasiko) + Original Ita

Reply to topic
DL-List and Torrent activity
Size:  1.37 GB   |    Registered:  3 years 1 month   |    Completed:  16 times

Seeder not seen: 3 years 1 month

 
   
 
 
Author Message

erzsebet.org ®

Longevity: 3 years 1 month

Posts: 47596

Post 02-Dec-2017 16:06

[Quote]

Гонорар за предательство / La Mazzetta
Страна: Италия
Жанр: Комедия
Год выпуска: 1978
Продолжительность: 01:46:16
Перевод: Одноголосый закадровый Urasiko
Субтитры: нет
Оригинальная аудиодорожка: итальянский
Режиссер: Серджио Корбуччи / Sergio Corbucci
В ролях: Нино Манфреди, Уго Тоньяцци, Паоло Стоппа, Мариса Лаурито, Имма Пиро, Дженнаро Ди Наполи, Мариза Мерлини, Сальваторе Боргезе, Джованни Боргезе, Бенито Стефанелли, Джакомо Фурия, Лилли Фуриа, Пьетро Де Вико, Нино Винджелли, Макс Турилли.
Описание: Неаполитанец Саза Йовине еле сводит концы с концами, сбивая деньги с обманутых клиентов, представляясь адвокатом. Когда крупный промышленник Микеле Милетти предлагает ему за большие "бабки" найти сбежавшую с важными документами дочь, он соглашается и попадает в карусель страшных убийств и приключений.
Доп. информация: Релиз
Перевод с итальянского языка с использованием советского перевода Urasiko
Сэмпл: http://multi-up.com/1175272
Качество видео: DVDRip
Формат видео: AVI
Видео: 704x384 (1.83:1), 25.00 fps, XviD MPEG-4, ~1449 kbps avg, 0.21 bit/pixel
Аудио: Русский AC3 Dolby Digital, 2/0 (L,R) ch, 48 kHz, 192 kbps
Аудио 2: Итальянский AC3 Dolby Digital, 2/0 (L,R) ch, 48 kHz, 192 kbps

MediaInfo

Общее
Полное имя : F:\Gonorar\La Mazzetta DVDRip Rus.avi
Формат : AVI
Формат/Информация : Audio Video Interleave
Размер файла : 1,37 Гбайт
Продолжительность : 1 ч. 46 м.
Общий поток : 1849 Кбит/сек
Программа кодирования : VirtualDubMod 1.5.10.2 (build 2540/release)
Библиотека кодирования : VirtualDubMod build 2540/release
Видео
Идентификатор : 0
Формат : MPEG-4 Visual
Профиль формата : Advanced [email protected]
Параметр BVOP формата : 1
Параметр QPel формата : Нет
Параметр GMC формата : Без точки перехода
Параметр матрицы формата : Выборочная
Идентификатор кодека : XVID
Идентификатор кодека/Подсказка : XviD
Продолжительность : 1 ч. 46 м.
Битрейт : 1450 Кбит/сек
Ширина : 704 пикселя
Высота : 384 пикселя
Соотношение сторон : 1,85:1
Частота кадров : 25,000 кадров/сек
Цветовое пространство : YUV
Субдискретизация насыщенности : 4:2:0
Битовая глубина : 8 бит
Тип развёртки : Прогрессивная
Метод сжатия : С потерями
Бит/(Пиксели*Кадры) : 0.215
Размер потока : 1,08 Гбайт (78%)
Библиотека кодирования : XviD 64
Аудио #1
Идентификатор : 1
Формат : AC-3
Формат/Информация : Audio Coding 3
Расширение режима : CM (complete main)
Параметр Endianness формата : Big
Идентификатор кодека : 2000
Продолжительность : 1 ч. 46 м.
Вид битрейта : Постоянный
Битрейт : 192 Кбит/сек
Каналы : 2 канала
Расположение каналов : Front: L R
Частота : 48,0 КГц
Частота кадров : 31,250 кадров/сек (1536 spf)
Метод сжатия : С потерями
Размер потока : 146 Мбайт (10%)
Выравнивание : Разделение по промежуткам
Продолжительность промежутка : 40 мс. (1,00 видеокадр)
Время предзагрузки промежутка : 500 мс.
Аудио #2
Идентификатор : 2
Формат : AC-3
Формат/Информация : Audio Coding 3
Расширение режима : CM (complete main)
Параметр Endianness формата : Big
Идентификатор кодека : 2000
Продолжительность : 1 ч. 46 м.
Вид битрейта : Постоянный
Битрейт : 192 Кбит/сек
Каналы : 2 канала
Расположение каналов : Front: L R
Частота : 48,0 КГц
Частота кадров : 31,250 кадров/сек (1536 spf)
Метод сжатия : С потерями
Размер потока : 146 Мбайт (10%)
Выравнивание : Разделение по промежуткам
Продолжительность промежутка : 40 мс. (1,00 видеокадр)
Время предзагрузки промежутка : 500 мс.

Скриншот c названием фильма

Скриншоты

If your ratio falls below 0.3, you will not be able to download Torrents! More about the rating.

[erzsebet.pl].t104.torrent
Torrent: Registered [ 2017-12-02 16:06 ] · FB008609E0DDDFFF5EE38872471BD4F8C5CAF184

Download .torrent

Download

14 KB

Status: checked
Completed: 16 times
Size: 1.37 GB
terms.php
[Profile] [PM]
Display posts:    
Reply to topic

Current time is: 23-Jan 23:31

All times are UTC ± 0



You cannot post new topics in this forum
You cannot reply to topics in this forum
You cannot edit your posts in this forum
You cannot delete your posts in this forum
You cannot vote in polls in this forum
You cannot attach files in this forum
You can download files in this forum