Холодный пот / Человек отбрасывающий две тени / Cold sweat / De la part des copains (Теренс Янг / Terence Young) [1970, Франция, Италия, Бельгия, боевик, триллер, драма, DVDRip] AVO (Леонид Володарский)

Reply to topic
DL-List and Torrent activity
Size:  1.45 GB   |    Registered:  3 years 1 month   |    Completed:  16 times

Seeder not seen: 3 years 1 month

 
   
 
 
Author Message

erzsebet.org ®

Longevity: 3 years 1 month

Posts: 47596

Post 02-Dec-2017 16:06

[Quote]

Холодный пот / Человек отбрасывающий две тени / Cold sweat / De la part des copains
Страна: Франция, Италия, Бельгия
Жанр: боевик, триллер
Год выпуска: 1970
Продолжительность: 01:29:40
Перевод: Авторский (одноголосый закадровый) Леонид Володарский
Субтитры: нет
Режиссер: Теренс Янг / Terence Young
В ролях: Чарльз Бронсон, Лив Ульман, Джеймс Мейсон, Мишель Константен, Джилл Айрленд, Луиджи Пистилли, Мишель Константен, Поль Бонифас, Ремо Москони
Описание: Джо Мартин живет со своей семьей во Франции. Однажды его спокойная жизнь нарушается звонками с угрозами. Он сохраняет спокойствие и кажется догадывается, кто это . Это люди из его прошлого, в прошлом Джо во время службы в армии, ввязался в одну очень неприятную аферу. Возврата в прошлое он не хочет...
Доп. информация: Выражаю огромную благодарность Нордеру, за синхронизацию звуковой дорожки.
Сэмпл: http://multi-up.com/1174958
Качество видео: DVDRip (Исходник - DVD9)
Формат видео: AVI
Видео: XviD 73, 704x384, (1,85:1), 25,000 fps, 2085 Кбит/с, 8 бит, 0.30 bit/pixel
Аудио: Русский (АС3, 2 ch (Front: L R), 48,0 KHz, 224 Kbps)

MediaInfo

Общее
Полное имя : D:\Видеофильмы\В и д е о\Холодный пот (боевик, триллер, драма 1970 год).avi
Формат : AVI
Формат/Информация : Audio Video Interleave
Размер файла : 1,45 Гбайт
Продолжительность : 1 ч. 29 м.
Общий поток : 2319 Кбит/сек
Программа кодирования : VirtualDubMod 1.5.10.2 (build 2540/release)
Библиотека кодирования : VirtualDubMod build 2540/release
Видео
Идентификатор : 0
Формат : MPEG-4 Visual
Профиль формата : Advanced [email protected]
Параметр BVOP формата : 2
Параметр QPel формата : Нет
Параметр GMC формата : Без точки перехода
Параметр матрицы формата : Выборочная
Идентификатор кодека : XVID
Идентификатор кодека/Подсказка : XviD
Продолжительность : 1 ч. 29 м.
Битрейт : 2085 Кбит/сек
Ширина : 704 пикселя
Высота : 384 пикселя
Соотношение сторон : 1,85:1
Частота кадров : 25,000 кадров/сек
Цветовое пространство : YUV
Субдискретизация насыщенности : 4:2:0
Битовая глубина : 8 бит
Тип развёртки : Прогрессивная
Метод сжатия : С потерями
Бит/(Пиксели*Кадры) : 0.308
Размер потока : 1,31 Гбайт (90%)
Библиотека кодирования : XviD 73
Аудио
Идентификатор : 1
Формат : AC-3
Формат/Информация : Audio Coding 3
Расширение режима : CM (complete main)
Параметр Endianness формата : Big
Идентификатор кодека : 2000
Продолжительность : 1 ч. 29 м.
Вид битрейта : Постоянный
Битрейт : 224 Кбит/сек
Каналы : 2 канала
Расположение каналов : Front: L R
Частота : 48,0 КГц
Частота кадров : 31,250 кадров/сек (1536 spf)
Метод сжатия : С потерями
Размер потока : 144 Мбайт (10%)
Выравнивание : Разделение по промежуткам
Продолжительность промежутка : 40 мс. (1,00 видеокадр)
Время предзагрузки промежутка : 500 мс.

Скриншот c названием фильма

Скриншоты

If your ratio falls below 0.3, you will not be able to download Torrents! More about the rating.

[erzsebet.pl].t117.torrent
Torrent: Registered [ 2017-12-02 16:06 ] · 9D78F14478F67D8AB02CC10FDA2C0A086DEC9921

Download .torrent

Download

15 KB

Status: checked
Completed: 16 times
Size: 1.45 GB
terms.php
[Profile] [PM]
Display posts:    
Reply to topic

Current time is: 21-Jan 16:58

All times are UTC ± 0



You cannot post new topics in this forum
You cannot reply to topics in this forum
You cannot edit your posts in this forum
You cannot delete your posts in this forum
You cannot vote in polls in this forum
You cannot attach files in this forum
You can download files in this forum