Падение Римской Империи / The Fall Of The Roman Empire (Энтони Манн / Anthony Mann) [1964, США, исторический, HDRip-AVC] AVO (Михалёв) + Sub Eng, Rus + Original Eng

Reply to topic
DL-List and Torrent activity
Size:  4.36 GB   |    Registered:  3 years 1 month   |    Completed:  16 times

Seeder not seen: 3 years 1 month

 
   
 
 
Author Message

erzsebet.org ®

Longevity: 3 years 1 month

Posts: 47596

Post 02-Dec-2017 16:10

[Quote]

Падение Римской Империи / The Fall Of The Roman Empire
Страна: США
Жанр: исторический
Год выпуска: 1964
Продолжительность: 02:59:57
Перевод: Авторский (одноголосый закадровый) Алексея Михалёва
Субтитры: английские, русские
Оригинальная аудиодорожка: английский
Режиссер: Энтони Манн /Anthony Mann/
В ролях: Алек Гиннесс /Alec Guinness/, Джеймс Мэйсон /James Mason/, Кристофер Пламмер /Christopher Plummer/, София Лорен /Sophia Loren/, Стивен Бойд /Stephen Boyd/, Мел Феррер /Mel Ferrer/, Омар Шариф /Omar Sharif/
Рецензия Михаила Иванова: Один из самых амбициозных фильмов в истории, рассказывающий о закате величайшего государства древности. Разврат и коррупция поставили когда-то гордую империю на колени. Для этой эпической драмы была построена самая большая декорация римского форума.
Доп. информация: исходник от ssp43; перевод Михалёва оцифровал и подготовил karlll
Качество видео: HDRip-AVC ~Сэмпл~
Формат видео: MKV
Видео: MPEG4 (H264) 1136x480 23.976fps 2981kbps
Аудио 1: Dolby AC3 48KHz 2ch 224kbps - рус
Аудио 2: Dolby AC3 48KHz 2ch 224kbps - анг
Формат субтитров: softsub (SRT)

MediaInfo

Формат : Matroska
Версия формата : Version 2
Размер файла : 4,36 Гбайт
Продолжительность : 2 ч. 59 м.
Общий поток : 3466 Кбит/сек
Дата кодирования : UTC 2017-10-30 01:24:38
Программа кодирования : mkvmerge v6.9.1 ('Blue Panther') 32bit built on Apr 18 2014 18:15:44
Библиотека кодирования : libebml v1.3.0 + libmatroska v1.4.1
Видео
Идентификатор : 1
Формат : AVC
Формат/Информация : Advanced Video Codec
Профиль формата : [email protected]
Параметр CABAC формата : Да
Параметр ReFrames формата : 7 кадров
Идентификатор кодека : V_MPEG4/ISO/AVC
Продолжительность : 2 ч. 59 м.
Битрейт : 2981 Кбит/сек
Ширина : 1136 пикселей
Высота : 480 пикселей
Соотношение сторон : 2,35:1
Режим частоты кадров : Постоянный
Частота кадров : 23,976 кадра/сек
Цветовое пространство : YUV
Субдискретизация насыщенности : 4:2:0
Битовая глубина : 8 бит
Тип развёртки : Прогрессивная
Бит/(Пиксели*Кадры) : 0.228
Размер потока : 3,71 Гбайт (85%)
Заголовок : The Fall Of The Roman Empire (1964)
Библиотека кодирования : x264 core 148 r2638 7599210
Настройки программы : cabac=1 / ref=7 / deblock=1:-1:-1 / analyse=0x3:0x113 / me=umh / subme=9 / psy=1 / psy_rd=1.00:0.20 / mixed_ref=1 / me_range=24 / chroma_me=1 / trellis=2 / 8x8dct=1 / cqm=0 / deadzone=21,11 / fast_pskip=0 / chroma_qp_offset=-3 / threads=6 / lookahead_threads=1 / sliced_threads=0 / nr=0 / decimate=0 / interlaced=0 / bluray_compat=0 / constrained_intra=0 / bframes=7 / b_pyramid=2 / b_adapt=2 / b_bias=0 / direct=3 / weightb=1 / open_gop=0 / weightp=2 / keyint=250 / keyint_min=23 / scenecut=40 / intra_refresh=0 / rc_lookahead=50 / rc=2pass / mbtree=1 / bitrate=2981 / ratetol=1.0 / qcomp=0.60 / qpmin=0 / qpmax=69 / qpstep=4 / cplxblur=20.0 / qblur=0.5 / vbv_maxrate=14000 / vbv_bufsize=14000 / nal_hrd=none / filler=0 / ip_ratio=1.40 / aq=1:1.00
Язык : English
Default : Да
Forced : Нет
Аудио #1
Идентификатор : 2
Формат : AC-3
Формат/Информация : Audio Coding 3
Расширение режима : CM (complete main)
Параметр Endianness формата : Big
Идентификатор кодека : A_AC3
Продолжительность : 2 ч. 59 м.
Вид битрейта : Постоянный
Битрейт : 224 Кбит/сек
Каналы : 2 канала
Расположение каналов : Front: L R
Частота : 48,0 КГц
Битовая глубина : 16 бит
Метод сжатия : С потерями
Размер потока : 288 Мбайт (6%)
Заголовок : Михалёв
Язык : Russian
Default : Да
Forced : Нет
Аудио #2
Идентификатор : 3
Формат : AC-3
Формат/Информация : Audio Coding 3
Расширение режима : CM (complete main)
Параметр Endianness формата : Big
Идентификатор кодека : A_AC3
Продолжительность : 2 ч. 59 м.
Вид битрейта : Постоянный
Битрейт : 224 Кбит/сек
Каналы : 2 канала
Расположение каналов : Front: L R
Частота : 48,0 КГц
Битовая глубина : 16 бит
Метод сжатия : С потерями
Размер потока : 288 Мбайт (6%)
Заголовок : english
Язык : English
Default : Нет
Forced : Нет
Текст #1
Идентификатор : 4
Формат : UTF-8
Идентификатор кодека : S_TEXT/UTF8
Идентификатор кодека/Информация : UTF-8 Plain Text
Заголовок : english
Язык : English
Default : Нет
Forced : Нет
Текст #2
Идентификатор : 5
Формат : UTF-8
Идентификатор кодека : S_TEXT/UTF8
Идентификатор кодека/Информация : UTF-8 Plain Text
Заголовок : русский
Язык : Russian
Default : Нет
Forced : Нет
Меню
00:00:00.000 : en:Chapter 00
00:08:27.882 : en:Chapter 01
00:14:19.650 : en:Chapter 02
00:19:22.327 : en:Chapter 03
00:25:50.632 : en:Chapter 04
00:32:31.449 : en:Chapter 05
00:38:31.392 : en:Chapter 06
00:44:08.687 : en:Chapter 07
00:49:28.924 : en:Chapter 08
00:57:38.580 : en:Chapter 09
01:13:26.860 : en:Chapter 10
01:20:54.099 : en:Chapter 11
01:26:13.168 : en:Chapter 12
01:31:45.333 : en:Chapter 13
01:39:55.614 : en:Chapter 14
01:46:56.326 : en:Chapter 15
01:55:16.326 : en:Chapter 16
02:03:10.174 : en:Chapter 17
02:11:29.715 : en:Chapter 18
02:20:32.841 : en:Chapter 19
02:28:36.866 : en:Chapter 20
02:35:35.492 : en:Chapter 21
02:44:03.834 : en:Chapter 22
02:50:56.871 : en:Chapter 23

Скриншоты

If your ratio falls below 0.3, you will not be able to download Torrents! More about the rating.

[erzsebet.pl].t131.torrent
Torrent: Registered [ 2017-12-02 16:10 ] · AC549E6F6CCA903131DDE33828CCBA6A75519FB6

Download .torrent

Download

22 KB

Status: checked
Completed: 16 times
Size: 4.36 GB
terms.php
[Profile] [PM]
Display posts:    
Reply to topic

Current time is: 20-Jan 22:04

All times are UTC ± 0



You cannot post new topics in this forum
You cannot reply to topics in this forum
You cannot edit your posts in this forum
You cannot delete your posts in this forum
You cannot vote in polls in this forum
You cannot attach files in this forum
You can download files in this forum