Я буду твоей / I'll Be Yours (Уильям Э. Сайтер / William A. Seiter) [1947, США, романтическая музыкальная комедия, DVB] DVO (Культура / СВ-Дубль)

Reply to topic
DL-List and Torrent activity
Size:  1.53 GB   |    Registered:  3 years 1 month   |    Completed:  16 times

Seeder not seen: 3 years 1 month

 
   
 
 
Author Message

erzsebet.org ®

Longevity: 3 years 1 month

Posts: 47596

Post 02-Dec-2017 16:09

[Quote]

Я буду твоей / I'll Be Yours- Страна: США
Жанр: романтическая музыкальная комедия
Год выпуска: 1947
Продолжительность: 01:29:23-Перевод: Профессиональный (двухголосый закадровый) - "СВ-Дубль" по заказу ГТРК "Культура"
Субтитры: нет-Режиссер: Уильям Э. Сайтер / William A. Seiter
В ролях: Дина Дурбин, Том Дрэйк, Уильям Бендикс, Адолф Менжу, Уолтер Кэтлетт, Фрэнклин Пэнгборн, Уилльям Трэнк, Джоэн Шоул...- | Релиз: -Описание: В поисках лучшей жизни Луиза приезжает из провинциального городка в Нью-Йорк. В один прекрасный вечер девушка, выдавая себя за участницу развлекательной программы, пробирается на роскошный прием, устроенный пожилым миллионером. Шикарное платье из театральной костюмерной и потрясающий голос производят на того неизгладимое впечатление. Но ухаживания старого ловеласа Луизе не по душе, и она выдумывает историю о ревнивом муже, не подозревая, к чему это приведет.-Семпл: http://sendfile.su/1371196-Тип релиза: DVB
Контейнер: TS
Видео: 720x576 (4:3) @ 786x576, 25.000 fps, AVC, ~2140 Kbps, 0.206 bits/pixel
Аудио: Русский, 48.0 KHz, MPEG-1 Audio layer 2, 2 ch, 192 Kbps

MediaInfo

General
ID : 1 (0x1)
Complete name : I'll Be Yours 1947 Kultura DVO SV-Dubl.ts
Format : MPEG-TS
File size : 1.53 GiB
Duration : 1 h 29 min
Overall bit rate mode : Variable
Overall bit rate : 2 456 kb/s
Video
ID : 205 (0xCD)
Menu ID : 1 (0x1)
Format : AVC
Format/Info : Advanced Video Codec
Format profile : [email protected]
Format settings : CABAC / 4 Ref Frames
Format settings, CABAC : Yes
Format settings, RefFrames : 4 frames
Format settings, GOP : M=4, N=28
Codec ID : 27
Duration : 1 h 29 min
Bit rate : 2 140 kb/s
Width : 720 pixels
Height : 576 pixels
Display aspect ratio : 4:3
Frame rate : 25.000 FPS
Standard : Component
Color space : YUV
Chroma subsampling : 4:2:0
Bit depth : 8 bits
Scan type : Interlaced
Scan type, store method : Separated fields
Scan order : Top Field First
Bits/(Pixel*Frame) : 0.206
Stream size : 1.34 GiB (87%)
Color range : Limited
Color primaries : BT.601 PAL
Transfer characteristics : BT.470 System B, BT.470 System G
Matrix coefficients : BT.470 System B, BT.470 System G
Audio
ID : 305 (0x131)
Menu ID : 1 (0x1)
Format : MPEG Audio
Format version : Version 1
Format profile : Layer 2
Codec ID : 3
Duration : 1 h 29 min
Bit rate mode : Constant
Bit rate : 192 kb/s
Channel(s) : 2 channels
Sampling rate : 48.0 kHz
Compression mode : Lossy
Delay relative to video : -40 ms
Stream size : 123 MiB (8%)
Language : Russian

Сравнение с DVD

DVD http://erzsebet.org/forum/viewtopic.php?t=259967

Культура

If your ratio falls below 0.3, you will not be able to download Torrents! More about the rating.

[erzsebet.pl].t150.torrent
Torrent: Registered [ 2017-12-02 16:10 ] · 0B071F60EAA8F8B8A2A8A1B91076CCF4C0B6FDB9

Download .torrent

Download

16 KB

Status: checked
Completed: 16 times
Size: 1.53 GB
terms.php
[Profile] [PM]
Display posts:    
Reply to topic

Current time is: 22-Jan 05:50

All times are UTC ± 0



You cannot post new topics in this forum
You cannot reply to topics in this forum
You cannot edit your posts in this forum
You cannot delete your posts in this forum
You cannot vote in polls in this forum
You cannot attach files in this forum
You can download files in this forum