Золото Маккенны / Mackenna's Gold (Дж. Ли Томпсон / J. Lee Thompson) [1969, США, мелодрама, вестерн, приключения, BDRip] AVO (Андрей Гаврилов)

Reply to topic
DL-List and Torrent activity
Size:  1.48 GB   |    Registered:  3 years 1 month   |    Completed:  16 times

Seeder not seen: 3 years 1 month

 
   
 
 
Author Message

erzsebet.org ®

Longevity: 3 years 1 month

Posts: 47596

Post 02-Dec-2017 16:09

[Quote]

Золото Маккенны / Mackenna's Gold
Страна: США
Жанр: мелодрама, вестерн, приключения
Год выпуска: 1969
Продолжительность: 02:08:16
Перевод: Авторский (одноголосый закадровый) Андрей Гаврилов
Субтитры: нет
Режиссер: Дж. Ли Томпсон / J. Lee Thompson
В ролях: Грегори Пек, Омар Шариф, Телли Савалас, Камилла Спарв, Эли Уоллах, Кинэн Уинн, Джули Ньюмар, Тед Кэссиди, Ли Джей Кобб
Описание: Существует легенда о несметных сокровищах апачей, которые охраняют сильные духи. Один человек Адамс нашел каньон с этими богатствами. Индейцы поймали и ослепили его для того, чтобы он не смог показать дорогу. С тех пор эти места называют «Каньоном Слепого Адамса». Шериф городка Гедлинберга Маккенна убивает одного из вождей апачей. У него он находит карту с указанием, где нужно искать сокровища. В округе действует банда Джона Колорадо. Головорезы убивают судью и захватывают его дочь Ингу. Маккенна был другом судьи, он хочет освободить девушку. Колорадо предлагает ему сделку, он отпустит Ингу после того, как шериф покажет ему дорогу к каньону. Многие известные жители Гединберга узнали о том, что Маккенна готов показать путь присоединяются к искателям сокровищ. Каждый из них мечтает об огромном богатстве. Даже сержант Тиббс не смог устоять перед таким искушением. Теперь он вместе с бандитами Колорадо. Полный опасностей путь заканчивается в «Золотом каньоне». Только духи народа апачей не собираются отдавать свое золото...
Сэмпл: http://multi-up.com/1172940
Качество видео: BDRip (Исходник BDRemux 1080p)
Формат видео: AVI
Видео: XviD 73, 720x304, (2,35:1), 23,976 fps, 1447 Кбит/с, 8 бит, 0.28 bit/pixel
Аудио: Русский (АС3, 2 ch (Front: L R), 48,0 KHz, 192 Kbps)

MediaInfo

Общее
Полное имя : D:\Видеофильмы\В и д е о\Золото Маккенны (вестерн, приключения 1969 год).avi
Формат : AVI
Формат/Информация : Audio Video Interleave
Размер файла : 1,48 Гбайт
Продолжительность : 2 ч. 8 м.
Общий поток : 1648 Кбит/сек
Программа кодирования : VirtualDubMod 1.5.10.2 (build 2540/release)
Библиотека кодирования : VirtualDubMod build 2540/release
Видео
Идентификатор : 0
Формат : MPEG-4 Visual
Профиль формата : Advanced [email protected]
Параметр BVOP формата : 2
Параметр QPel формата : Нет
Параметр GMC формата : Без точки перехода
Параметр матрицы формата : Выборочная
Идентификатор кодека : XVID
Идентификатор кодека/Подсказка : XviD
Продолжительность : 2 ч. 8 м.
Битрейт : 1447 Кбит/сек
Ширина : 720 пикселей
Высота : 304 пикселя
Соотношение сторон : 2,35:1
Частота кадров : 23,976 (23976/1000) кадра/сек
Цветовое пространство : YUV
Субдискретизация насыщенности : 4:2:0
Битовая глубина : 8 бит
Тип развёртки : Прогрессивная
Метод сжатия : С потерями
Бит/(Пиксели*Кадры) : 0.276
Размер потока : 1,30 Гбайт (88%)
Библиотека кодирования : XviD 73
Аудио
Идентификатор : 1
Формат : AC-3
Формат/Информация : Audio Coding 3
Расширение режима : CM (complete main)
Параметр Endianness формата : Big
Идентификатор кодека : 2000
Продолжительность : 2 ч. 8 м.
Вид битрейта : Постоянный
Битрейт : 192 Кбит/сек
Каналы : 2 канала
Расположение каналов : Front: L R
Частота : 48,0 КГц
Частота кадров : 31,250 кадров/сек (1536 spf)
Метод сжатия : С потерями
Размер потока : 176 Мбайт (12%)
Выравнивание : Разделение по промежуткам
Продолжительность промежутка : 42 мс. (1,00 видеокадр)
Время предзагрузки промежутка : 500 мс.

Скриншот c названием фильма

Скриншоты

If your ratio falls below 0.3, you will not be able to download Torrents! More about the rating.

[erzsebet.pl].t152.torrent
Torrent: Registered [ 2017-12-02 16:10 ] · 00C67021740419F4AE40A22FD6ECC6CF812FDC33

Download .torrent

Download

15 KB

Status: checked
Completed: 16 times
Size: 1.48 GB
terms.php
[Profile] [PM]
Display posts:    
Reply to topic

Current time is: 22-Jan 07:03

All times are UTC ± 0



You cannot post new topics in this forum
You cannot reply to topics in this forum
You cannot edit your posts in this forum
You cannot delete your posts in this forum
You cannot vote in polls in this forum
You cannot attach files in this forum
You can download files in this forum