Мост через реку Квай / The Bridge on the River Kwai (Дэвид Лин / David Lean) [1957, США, Великобритания, драма, приключения, военный, BDRip] AVO (Михаил Иванов)

Reply to topic
DL-List and Torrent activity
Size:  2.17 GB   |    Registered:  3 years 1 month   |    Completed:  16 times

Seeder not seen: 3 years 1 month

 
   
 
 
Author Message

erzsebet.org ®

Longevity: 3 years 1 month

Posts: 47596

Post 02-Dec-2017 16:09

[Quote]

Мост через реку Квай / The Bridge on the River Kwai
Страна: США, Великобритания
Жанр: драма, приключения, военный
Год выпуска: 1957
Продолжительность: 02:41:28
Перевод: Авторский (одноголосый закадровый) Михаил Иванов
Субтитры: нет
Режиссер: Дэвид Лин / David Lean
В ролях: Алек Гиннесс, Уильям Холден, Джек Хоукинс, Сессю Хаякава, Джеймс Дональд, Джеффри Торн, Андре Морель, Питер Уильямс, Джон Боксер
Описание: Тем, кто побывал тогда в Бирме, никогда не забыть жестокость и равнодушие японских охранников, долгие дни под палящим солнцем и ночи, не приносящие прохлады, а также постоянный голод, болезни и тень смерти, которая все время кружила рядом… Но полковник Николсон, который сначала сам призывал своих бойцов саботировать строительство, вдруг начал трудиться, словно это и вправду было делом чести – выстроить мост через реку Квай. Он не знал, что плод его трудов вскоре будет взорван и вкладывал в него душу, а потом, поняв, что он скоро взлетит на воздух, бросился защищать его…
Доп. информация: Дорога синхронизирована Нордер при помощи Sony Vegas . За предоставленную дорожку благодарим - AMIRKHAN NOIR из Баку
Рейтинг фильма : -- IMDB / 8,2
Сэмпл: http://multi-up.com/1172269
Качество видео: BDRip (Исходник BDRemux 1080p)
Формат видео: AVI
Видео: XviD 73, 688x272, (2,53:1), 23,976 fps, 1719 Кбит/с, 8 бит
Аудио: Русский (АС3, 2 ch (Front: L R), 48,0 KHz, 192 Kbps)

MediaInfo

Общее
Полное имя : D:\Видеофильмы\В и д е о\Мост через реку Квай (драма, приключения, военный 1957 год).avi
Формат : AVI
Формат/Информация : Audio Video Interleave
Профиль формата : OpenDML
Размер файла : 2,17 Гбайт
Продолжительность : 2 ч. 41 м.
Общий поток : 1923 Кбит/сек
Программа кодирования : VirtualDubMod 1.5.10.3 | www.virtualdub-fr.org || (build 2550/release)
Библиотека кодирования : VirtualDubMod build 2550/release
Видео
Идентификатор : 0
Формат : MPEG-4 Visual
Профиль формата : Advanced [email protected]
Параметр BVOP формата : 2
Параметр QPel формата : Нет
Параметр GMC формата : Без точки перехода
Параметр матрицы формата : Выборочная
Идентификатор кодека : XVID
Идентификатор кодека/Подсказка : XviD
Продолжительность : 2 ч. 41 м.
Битрейт : 1719 Кбит/сек
Ширина : 688 пикселей
Высота : 272 пикселя
Соотношение сторон : 2,529
Частота кадров : 23,976 (23976/1000) кадра/сек
Цветовое пространство : YUV
Субдискретизация насыщенности : 4:2:0
Битовая глубина : 8 бит
Тип развёртки : Прогрессивная
Метод сжатия : С потерями
Бит/(Пиксели*Кадры) : 0.383
Размер потока : 1,94 Гбайт (89%)
Библиотека кодирования : XviD 73
Аудио
Идентификатор : 1
Формат : AC-3
Формат/Информация : Audio Coding 3
Расширение режима : CM (complete main)
Параметр Endianness формата : Big
Идентификатор кодека : 2000
Продолжительность : 2 ч. 41 м.
Вид битрейта : Постоянный
Битрейт : 192 Кбит/сек
Каналы : 2 канала
Расположение каналов : Front: L R
Частота : 48,0 КГц
Частота кадров : 31,250 кадров/сек (1536 spf)
Метод сжатия : С потерями
Размер потока : 222 Мбайт (10%)
Выравнивание : Разделение по промежуткам
Продолжительность промежутка : 42 мс. (1,00 видеокадр)
Время предзагрузки промежутка : 500 мс.

Скриншот c названием фильма

Скриншоты

If your ratio falls below 0.3, you will not be able to download Torrents! More about the rating.

[erzsebet.pl].t166.torrent
Torrent: Registered [ 2017-12-02 16:10 ] · 92434E9392464A003936B671983F2B26E12B9B3C

Download .torrent

Download

11 KB

Status: checked
Completed: 16 times
Size: 2.17 GB
terms.php
[Profile] [PM]
Display posts:    
Reply to topic

Current time is: 17-Jan 02:42

All times are UTC ± 0



You cannot post new topics in this forum
You cannot reply to topics in this forum
You cannot edit your posts in this forum
You cannot delete your posts in this forum
You cannot vote in polls in this forum
You cannot attach files in this forum
You can download files in this forum