Высокий Барбери / High Barbaree (Джек Конуэй / Jack Conway) [1947, США, драма, WEB-DLRip] VO + Original Eng + Sub Eng

Reply to topic
DL-List and Torrent activity
Size:  1.46 GB   |    Registered:  3 years 1 month   |    Completed:  16 times

Seeder not seen: 3 years 1 month

 
   
 
 
Author Message

erzsebet.org ®

Longevity: 3 years 1 month

Posts: 47596

Post 02-Dec-2017 16:09

[Quote]

Высокий Барбери / High BarbareeПроект посвящен 100-летию Джун Эллисон(7 октября 1917 – 8 июля 2006) Страна: США
Студия: Metro-Goldwyn-Mayer (MGM)
Жанр: драма
Год выпуска: 1947
Продолжительность: 01:30:59
Перевод: Одноголосый закадровый - Алексей Яковлев
Субтитры: английские
Оригинальная аудиодорожка: английский
Режиссер: Джек Конуэй / Jack Conway
Композитор: Херберт Стотхарт / Herbert Stothart
В ролях: Ван Джонсон / Van Johnson ... Alec Brooke
Джун Эллисон / June Allyson ... Nancy Frazer
Томас Митчелл / Thomas Mitchell ... Capt. Thad Vail
Мэрилин Максвелл / Marilyn Maxwell ... Diana Case
Кэмерон Митчелл / Cameron Mitchell ... Lt. Joe Moore
Клод Джармен мл. / Claude Jarman Jr. ... Alec (Age 14)
Генри Халл / Henry Hull ... Dr. William G. Brooke
Джеральдин Уолл / Geraldine Wall ... Mrs. Martha Brooke
Барбара Браун / Barbara Brown ... Della Parkson
Пол Харви / Paul Harvey ... John Case
Чарльз Эванс / Charles Evans ... Colonel Taylor
Дон Андерсон / Don Anderson ... Co-Pilot, в титрах не указан

Описание: Экранизация романа Чарльза Нордхоффа и Джеймса Нормана Холла.
Вторая мировая война. Пилот ВМС США Алек Брук служит на Гавайях. Он командует бомбардировщиком серии ПБЮ-5А"Каталина", который носит имя “Высокий Барбери” в честь мифического острова, о котором Алеку в детстве рассказывал его дядя. Во время операции по бомбардировке японской подводной лодки подбитый “Высокий Барбери” падает в океан далеко от территории союзников. Пока искорёженный самолет медленно дрейфует на волнах, Алек вместе со своим товарищем лейтенантом Джо Муром проводят время, слушая радио. Услышанный по радио голос Одри Тоттер навевает у Алекса воспоминания о своём прошлом. Он рассказывает товарищу о своей жизни в маленьком городке в штате Айова, о том, как он хотел стать врачом и пойти по стопам отца. Но основную часть воспоминаний составляет рассказ о Нэнси Фрейзер, в которую Алек был влюблён с детства и которая теперь служит медсестрой в военно-морском флоте.
Дополнительная информация:
- Это третий из шести фильмов, в которых вместе снялись Джун Эллисон и Ван Джонсон.--Фильмография Вана Джонсона--БОЛЬШОЕ СПАСИБО:
Работа со звуком - AlekceyR76
Перевод и озвучивание фильма - Алексей Яковлев
Также Большое Спасибо всем, кто принял участие в появлении перевода и озвучки к этому фильму:
Lafajet, Магда, jasenka, елена 22, yanaelisa, surzhoks, борюська, HippopotamusIV, voostorg, Ugo927, sindzi, cementit, leoder, mumzik69, spartakeynoir, Patsy+, Simpun
--Сэмпл: https://www.sendspace.com/file/zczhsq
Качество видео: WEB-DLRip
Формат видео: AVI
Видео: XviD, 704x528 (1.33:1), 23.976 fps, 1898 Kbps
Аудио 1: AC3, 48.0 KHz, 2 ch., 192 Kbps (русский одноголосый закадровый перевод) - Алексей Яковлев
Аудио 2: AC3, 48.0 KHz, 2 ch., 192 Kbps (оригинальная английская звуковая дорожка)

MediaInfo

Общее
Полное имя : I:\раздачи\High Barbaree 1947\High Barbaree.avi
Формат : AVI
Формат/Информация : Audio Video Interleave
Размер файла : 1,46 Гбайт
Продолжительность : 1 ч. 30 м.
Общий поток : 2296 Кбит/сек
Программа кодирования : VirtualDubMod 1.5.10.3 | www.virtualdub-fr.org || (build 2550/release)
Библиотека кодирования : VirtualDubMod build 2550/release
Видео
Идентификатор : 0
Формат : MPEG-4 Visual
Профиль формата : Advanced [email protected]
Параметр BVOP формата : 2
Параметр QPel формата : Нет
Параметр GMC формата : Без точки перехода
Параметр матрицы формата : Default (H.263)
Идентификатор кодека : DX50
Идентификатор кодека/Подсказка : DivX 5
Продолжительность : 1 ч. 30 м.
Битрейт : 1898 Кбит/сек
Ширина : 704 пикселя
Высота : 528 пикселей
Соотношение сторон : 4:3
Частота кадров : 23,976 (24000/1001) кадра/сек
Частота кадров в оригинале : 23,976 (23976/1000) кадра/сек
Цветовое пространство : YUV
Субдискретизация насыщенности : 4:2:0
Битовая глубина : 8 бит
Тип развёртки : Прогрессивная
Метод сжатия : С потерями
Бит/(Пиксели*Кадры) : 0.213
Размер потока : 1,21 Гбайт (83%)
Библиотека кодирования : XviD 73
Аудио #1
Идентификатор : 1
Формат : AC-3
Формат/Информация : Audio Coding 3
Параметр Endianness формата : Big
Идентификатор кодека : 2000
Продолжительность : 1 ч. 30 м.
Вид битрейта : Постоянный
Битрейт : 192 Кбит/сек
Каналы : 2 канала
Расположение каналов : Front: L R
Частота : 48,0 КГц
Частота кадров : 31,250 кадров/сек (1536 spf)
Битовая глубина : 16 бит
Метод сжатия : С потерями
Размер потока : 125 Мбайт (8%)
Выравнивание : Разделение по промежуткам
Продолжительность промежутка : 42 мс. (1,00 видеокадр)
Время предзагрузки промежутка : 500 мс.
ServiceKind/String : Complete Main
Аудио #2
Идентификатор : 2
Формат : AC-3
Формат/Информация : Audio Coding 3
Параметр Endianness формата : Big
Идентификатор кодека : 2000
Продолжительность : 1 ч. 30 м.
Вид битрейта : Постоянный
Битрейт : 192 Кбит/сек
Каналы : 2 канала
Расположение каналов : Front: L R
Частота : 48,0 КГц
Частота кадров : 31,250 кадров/сек (1536 spf)
Битовая глубина : 16 бит
Метод сжатия : С потерями
Размер потока : 125 Мбайт (8%)
Выравнивание : Разделение по промежуткам
Продолжительность промежутка : 42 мс. (1,00 видеокадр)
Время предзагрузки промежутка : 500 мс.
ServiceKind/String : Complete Main

If your ratio falls below 0.3, you will not be able to download Torrents! More about the rating.

[erzsebet.pl].t174.torrent
Torrent: Registered [ 2017-12-02 16:10 ] · 0AD2151E13588DEEC7A628C194CFC562C0BD9B4D

Download .torrent

Download

15 KB

Status: checked
Completed: 16 times
Size: 1.46 GB
terms.php
[Profile] [PM]
Display posts:    
Reply to topic

Current time is: 22-Jan 05:31

All times are UTC ± 0



You cannot post new topics in this forum
You cannot reply to topics in this forum
You cannot edit your posts in this forum
You cannot delete your posts in this forum
You cannot vote in polls in this forum
You cannot attach files in this forum
You can download files in this forum