Роковая женщина / Леди Бахус / The Bacchus Lady (Ли Джэ-ён / Je-yong Lee) [2016, Южная Корея, драма, комедия, криминал, HDTVRip] DVO (Asian Miracle Group)

Reply to topic
DL-List and Torrent activity
Size:  2.99 GB   |    Registered:  3 years 1 month   |    Completed:  16 times

Seeder not seen: Never

 
   
 
 
Author Message

erzsebet.org ®

Longevity: 3 years 1 month

Posts: 47596

Post 02-Dec-2017 15:58

[Quote]

Роковая женщина / Леди Бахус / The Bacchus Lady
Страна: Южная Корея
Жанр: драма, комедия, криминал
Год выпуска: 2016
Продолжительность: 01:51:00-Перевод: Любительский (двухголосый закадровый) Asian Miracle Group
Субтитры: нет
Режиссер: Ли Джэ-ён / Je-yong Lee-В ролях: Юн Ё-джон
Чон Му-сон
Юн Ге-сан
Чхве Хён-джун
Со Хи-джон
Мин Гён-джин-Описание: Со Ён 65 лет. Она изо все сил пытается свести концы с концами, подрабатывая проституткой для пожилых. Благодаря сарафанному радио ей даже удается стать популярной среди стариков. Вне работы Со Ён любит проводить время со своими странными соседями и домовладелицей-трансгендером.
Однажды от своего постоянно клиента женщина слышит просьбу убить его. Перед Со Ён встает сложный выбор, сохранить человеку жизнь или прекратить его страдания. С того самого момента люди начали приходить к ней с просьбой убить их.-Доп. информация:
Перевод: Екатерина Белоусова
Озвучивание: Антонина Лазаревская и Макс Коллапс
Работа со звуком и оформление постера: Макс Коллапс

Сэмпл: http://multi-up.com/1178290-Качество видео: HDTVRip
Формат видео: AVI
Видео: H264, 1280x720,16:9, 29.970 fps, 3 644 Kbps
Аудио: 192 Kbps, 2 channels, 44.1 KHz Язык Русский (в составе контейнера)

MediaInfo

Роковая женщина (Леди Бахус).avi
Format : AVI
Format/Info : Audio Video Interleave
Format profile : OpenDML
File size : 2.99 GiB
Duration : 1h 51mn
Overall bit rate : 3 849 Kbps
Writing application : VirtualDubMod 1.5.10.2 (build 2542/release)
Writing library : VirtualDubMod build 2542/release
Video
ID : 0
Format : AVC
Format/Info : Advanced Video Codec
Format profile : [email protected]
Format settings, CABAC : No
Format settings, ReFrames : 1 frame
Codec ID : H264
Duration : 1h 51mn
Bit rate : 3 644 Kbps
Nominal bit rate : 3 200 Kbps
Width : 1 280 pixels
Height : 720 pixels
Display aspect ratio : 16:9
Frame rate mode : Variable
Frame rate : 29.970 fps
Color space : YUV
Chroma subsampling : 4:2:0
Bit depth : 8 bits
Scan type : Progressive
Bits/(Pixel*Frame) : 0.132
Stream size : 2.83 GiB (95%)
Writing library : x264 core 144 r2533
Audio
ID : 1
Format : MPEG Audio
Format version : Version 1
Format profile : Layer 3
Codec ID : 55
Codec ID/Hint : MP3
Duration : 1h 51mn
Bit rate mode : Constant
Bit rate : 192 Kbps
Channel(s) : 2 channels
Sampling rate : 44.1 KHz
Compression mode : Lossy
Stream size : 153 MiB (5%)
Alignment : Split accross interleaves
Interleave, duration : 33 ms (1.00 video frame)
Interleave, preload duration : 500 ms

Скриншот c названием фильма

Скриншоты

If your ratio falls below 0.3, you will not be able to download Torrents! More about the rating.

[erzsebet.pl].t18.torrent
Torrent: Registered [ 2017-12-02 15:58 ] · B83A53047B103BC86F305D6039592D1957965B6F

Download .torrent

Download

16 KB

Status: checked
Completed: 16 times
Size: 2.99 GB
terms.php
[Profile] [PM]
Display posts:    
Reply to topic

Current time is: 18-Jan 00:24

All times are UTC ± 0



You cannot post new topics in this forum
You cannot reply to topics in this forum
You cannot edit your posts in this forum
You cannot delete your posts in this forum
You cannot vote in polls in this forum
You cannot attach files in this forum
You can download files in this forum