На север через северо-запад / North by Northwest (Альфред Хичкок / Alfred Hitchcock) [1959, США, триллер, VHSRip-AVC] [Fullscreen] MVO (Мост-Видео)

Reply to topic
DL-List and Torrent activity
Size:  2.92 GB   |    Registered:  3 years 1 month   |    Completed:  16 times

Seeder not seen: 3 years 1 month

 
   
 
 
Author Message

erzsebet.org ®

Longevity: 3 years 1 month

Posts: 47596

Post 02-Dec-2017 16:18

[Quote]

На север через северо-запад / North by Northwest / Fullscreen
Страна: США
Жанр: триллер
Год выпуска: 1959
Продолжительность: 02:10:50
Перевод: Профессиональный (многоголосый закадровый) Моcт-Видео
Субтитры: нет
Оригинальная аудиодорожка: нет
Режиссер: Альфред Хичкок / Alfred Hitchcock
В ролях: Кэри Грант, Ева Мари Сэйнт, Джеймс Мейсон, Джесси Ройс Лэндис, Лео Г. Кэррол, Жозефин Хатчинсон, Филип Обер, Мартин Ландау, Адам Уильямс, Эдвард Платт, Роберт Элленштейн, Лес Тремейн, Филип Кулидж, Патрик МакВей, Эд Биннс, Кен Линч, Альфред Хичкок (в титрах не указан)...
Описание: Однажды успешного рекламного агента Роджера Торнхилла ошибочно принимают за агента разведки Кэплана, которого никто не знает в лицо, и хотят его убрать. Обескураженный Роджер пытается бежать. В вагоне-ресторане поезда милая женщина по имени Ив помогает ему скрыться от преследователей…
Награды и номинации:
Оскар, 1960 год
Номинации:
Лучший оригинальный сценарий
Лучшая работа художника (цветные фильмы)
Лучший монтаж
Сан-Себастьян, 1959 год
Победитель:
Серебряная раковина
Доп. информация:
Оцифровка лицензионной VHS из собственной коллекции.
Fullscreen!
Данный перевод впервые в Рунете!

Сэмпл: http://sendfile.su/1367707
Качество видео: VHSRip-AVC
Формат видео: MP4
Видео: AVC, 720х576, 5:4, 25,000 кадров/сек, 3000 Кбит/сек
Аудио: AAC, 64,0 КГц, 192 Кбит/сек, 2.0 (псевдостерео)

MediaInfo

General
Complete name : K:\torrents\North by Northwest\North by Northwest.mp4
Format : MPEG-4
Format profile : Base Media
Codec ID : isom (isom/iso2/avc1/mp41)
File size : 2.92 GiB
Duration : 2 h 10 min
Overall bit rate : 3 196 kb/s
Writing application : Lavf57.25.100
Video
ID : 1
Format : AVC
Format/Info : Advanced Video Codec
Format profile : [email protected]
Format settings : 1 Ref Frames
Format settings, CABAC : No
Format settings, RefFrames : 1 frame
Format settings, GOP : M=1, N=50
Codec ID : avc1
Codec ID/Info : Advanced Video Coding
Duration : 2 h 10 min
Bit rate : 3 000 kb/s
Width : 720 pixels
Height : 576 pixels
Display aspect ratio : 5:4
Frame rate mode : Constant
Frame rate : 25.000 FPS
Standard : PAL
Color space : YUV
Chroma subsampling : 4:2:0
Bit depth : 8 bits
Scan type : Progressive
Bits/(Pixel*Frame) : 0.289
Stream size : 2.74 GiB (94%)
Audio
ID : 2
Format : AAC
Format/Info : Advanced Audio Codec
Format profile : LTP
Codec ID : mp4a-40-4
Duration : 2 h 10 min
Bit rate mode : Constant
Bit rate : 192 kb/s
Channel(s) : 2 channels
Channel(s)_Original : 3 channels
Channel positions : Front: L C R
Sampling rate : 64.0 kHz
Frame rate : 62.500 FPS (1024 SPF)
Compression mode : Lossy
Stream size : 177 MiB (6%)
Default : Yes
Alternate group : 1

Скриншот c названием фильма

If your ratio falls below 0.3, you will not be able to download Torrents! More about the rating.

[erzsebet.pl].t184.torrent
Torrent: Registered [ 2017-12-02 16:18 ] · EBA1A6607D2B87E33B86FBEF41BB8DFDD67F2BDB

Download .torrent

Download

15 KB

Status: checked
Completed: 16 times
Size: 2.92 GB
terms.php
[Profile] [PM]
Display posts:    
Reply to topic

Current time is: 22-Jan 22:10

All times are UTC ± 0



You cannot post new topics in this forum
You cannot reply to topics in this forum
You cannot edit your posts in this forum
You cannot delete your posts in this forum
You cannot vote in polls in this forum
You cannot attach files in this forum
You can download files in this forum