Ад в поднебесье / Вздымающийся ад / The Towering Inferno (Джон Гиллермин / John Guillermin, Ирвин Аллен / Irwin Allen) [1974, США, боевик, триллер, драма, HDRip] VO (Юрий Муравский)

Reply to topic
DL-List and Torrent activity
Size:  2.06 GB   |    Registered:  3 years 1 month   |    Completed:  16 times

Seeder not seen: 3 years 1 month

 
   
 
 
Author Message

erzsebet.org ®

Longevity: 3 years 1 month

Posts: 47596

Post 02-Dec-2017 16:17

[Quote]

Ад в поднебесье / Вздымающийся ад / The Towering Inferno
Страна: США
Жанр: боевик, триллер, драма
Год выпуска: 1974
Продолжительность: 02:44:54
Перевод: Одноголосый закадровый Юрий Муравский
Субтитры: нет
Режиссер: Джон Гиллермин / John Guillermin, Ирвин Аллен / Irwin Allen
В ролях: Стив МакКуин, Пол Ньюман, Уильям Холден, Фэй Данауэй, Фред Астер, Сьюзэн Блэйкли, Ричард Чемберлен, Дженнифер Джонс, О. Дж. Симпсон
Описание: В роковую ночь группа несчастных гостей остается отрезанной страшным пожаром на верхних этажах громадного небоскреба. Архитектор здания, ставший вынужденным узником своего творения, пытается помочь шефу пожарных спасти людей.
Доп. информация: Дорога синхронизирована Нордер при помощи Sony Vegas . За предоставленную дорожку благодарим - AMIRKHAN NOIR из Баку
Сэмпл: http://multi-up.com/1170610
Качество видео: HDRip (Исходник BDRip 1080p)
Формат видео: AVI
Видео: XviD 73, 720x304, (2,35:1), 23,976 fps, 1586 Кбит/с, 8 бит, 0.30 bit/pixel
Аудио: Русский (АС3, 2 ch (Front: L R), 48,0 KHz, 192 Kbps)

MediaInfo

Общее
Полное имя : D:\Видеофильмы\В и д е о\Ад в поднебесье (боевик, триллер, драма 1974 год).avi
Формат : AVI
Формат/Информация : Audio Video Interleave
Профиль формата : OpenDML
Размер файла : 2,06 Гбайт
Продолжительность : 2 ч. 44 м.
Общий поток : 1791 Кбит/сек
Программа кодирования : VirtualDubMod 1.5.10.3 | www.virtualdub-fr.org || (build 2550/release)
Библиотека кодирования : VirtualDubMod build 2550/release
Видео
Идентификатор : 0
Формат : MPEG-4 Visual
Профиль формата : Advanced [email protected]
Параметр BVOP формата : 2
Параметр QPel формата : Нет
Параметр GMC формата : Без точки перехода
Параметр матрицы формата : Выборочная
Идентификатор кодека : XVID
Идентификатор кодека/Подсказка : XviD
Продолжительность : 2 ч. 44 м.
Битрейт : 1586 Кбит/сек
Ширина : 720 пикселей
Высота : 304 пикселя
Соотношение сторон : 2,35:1
Частота кадров : 23,976 (23976/1000) кадра/сек
Цветовое пространство : YUV
Субдискретизация насыщенности : 4:2:0
Битовая глубина : 8 бит
Тип развёртки : Прогрессивная
Метод сжатия : С потерями
Бит/(Пиксели*Кадры) : 0.302
Размер потока : 1,83 Гбайт (89%)
Библиотека кодирования : XviD 73
Аудио
Идентификатор : 1
Формат : AC-3
Формат/Информация : Audio Coding 3
Расширение режима : CM (complete main)
Параметр Endianness формата : Big
Идентификатор кодека : 2000
Продолжительность : 2 ч. 44 м.
Вид битрейта : Постоянный
Битрейт : 192 Кбит/сек
Каналы : 2 канала
Расположение каналов : Front: L R
Частота : 48,0 КГц
Частота кадров : 31,250 кадров/сек (1536 spf)
Метод сжатия : С потерями
Размер потока : 226 Мбайт (11%)
Выравнивание : Разделение по промежуткам
Продолжительность промежутка : 42 мс. (1,00 видеокадр)
Время предзагрузки промежутка : 500 мс.

Скриншот c названием фильма

Скриншоты

If your ratio falls below 0.3, you will not be able to download Torrents! More about the rating.

[erzsebet.pl].t197.torrent
Torrent: Registered [ 2017-12-02 16:18 ] · E356F8A133F1034D0F4318447929F52DC1293190

Download .torrent

Download

11 KB

Status: checked
Completed: 16 times
Size: 2.06 GB
terms.php
[Profile] [PM]
Display posts:    
Reply to topic

Current time is: 17-Jan 18:25

All times are UTC ± 0



You cannot post new topics in this forum
You cannot reply to topics in this forum
You cannot edit your posts in this forum
You cannot delete your posts in this forum
You cannot vote in polls in this forum
You cannot attach files in this forum
You can download files in this forum