Спартак / Spartacus (Стэнли Кубрик / Stanley Kubrick) [1960, США, драма, приключения, военный, HDRip] [Restored Edition] AVO (Михаил Иванов)

DL-List and Torrent activity
Size:  2.18 GB   |    Registered:  3 years 1 month   |    Completed:  16 times
Seeders:  3  
 
   
 
 

erzsebet.org ®

Longevity:
3 years 1 month
Posts:
47596

[Quote] 

Спартак / Spartacus / Restored Edition
Страна: США
Жанр: драма, приключения, военный
Год выпуска: 1960
Продолжительность: 03:16:43
Перевод: Авторский (одноголосый закадровый) Михаил Иванов
Субтитры: нет
Режиссер: Стэнли Кубрик / Stanley Kubrick
В ролях: Кирк Дуглас, Лоуренс Оливье, Джин Симмонс, Чарльз Лотон, Питер Устинов, Джон Гэвин, Нина Фош, Джон Айрленд, Херберт Лом
Описание: У Батиата есть школа гладиаторов, куда он постоянно покупает рабов. Новым приобретением Лентула становится фракиец, который до этого работал на каменоломне. В Спартаке виден потенциал, поэтому с ним ланиста занимается особенно упорно. В стенах школы к будущим гладиаторам относятся намного лучше, чем к прочим рабам. Им дарят подарки в виде женщин, нормальной еды и прочего. Спартак отказывается от приведённой к нему Варинии, не желая подчиняться странному правилу. Хотя между фракийцем и девушкой есть симпатия. К Батиату обращаются знатные римляне с предложением провести бой насмерть в стенах школы. Это может привести к рабскому бунту, но деньги толкают Лентула на риск. Как и следовало ожидать, закончилось представление восстанием, и Спартак встал во главе. Вместе с примкнувшими к нему, герой направляется к морю, стремясь покинуть страну. Они становятся лагерем у Везувия и постепенно налаживают быт. Но до конца противостояния ещё далеко…
Доп. информация: Дорога синхронизирована Нордер при помощи Sony Vegas . За предоставленную дорожку благодарим - AMIRKHAN NOIR из Баку
Сэмпл: http://multi-up.com/1170576
Качество видео: HDRip (Исходник BDRip 1080p)
Формат видео: AVI
Видео: XviD 73, 720x320, (2,25:1), 23,976 fps, 1382 Кбит/с, 8 бит, 0.25 bit/pixel
Аудио: Русский (АС3, 2 ch (Front: L R), 48,0 KHz, 192 Kbps)

MediaInfo

Общее
Полное имя : D:\Видеофильмы\В и д е о\Спартак (приключения, военный, история 1960 год).avi
Формат : AVI
Формат/Информация : Audio Video Interleave
Профиль формата : OpenDML
Размер файла : 2,18 Гбайт
Продолжительность : 3 ч. 16 м.
Общий поток : 1586 Кбит/сек
Программа кодирования : VirtualDubMod 1.5.10.2 (build 2540/release)
Библиотека кодирования : VirtualDubMod build 2540/release
Видео
Идентификатор : 0
Формат : MPEG-4 Visual
Профиль формата : Advanced [email protected]
Параметр BVOP формата : 2
Параметр QPel формата : Нет
Параметр GMC формата : Без точки перехода
Параметр матрицы формата : Выборочная
Идентификатор кодека : XVID
Идентификатор кодека/Подсказка : XviD
Продолжительность : 3 ч. 16 м.
Битрейт : 1382 Кбит/сек
Ширина : 720 пикселей
Высота : 320 пикселей
Соотношение сторон : 2,25:1
Частота кадров : 23,976 (23976/1000) кадра/сек
Цветовое пространство : YUV
Субдискретизация насыщенности : 4:2:0
Битовая глубина : 8 бит
Тип развёртки : Прогрессивная
Метод сжатия : С потерями
Бит/(Пиксели*Кадры) : 0.250
Размер потока : 1,90 Гбайт (87%)
Библиотека кодирования : XviD 73
Аудио
Идентификатор : 1
Формат : AC-3
Формат/Информация : Audio Coding 3
Расширение режима : CM (complete main)
Параметр Endianness формата : Big
Идентификатор кодека : 2000
Продолжительность : 3 ч. 16 м.
Вид битрейта : Постоянный
Битрейт : 192 Кбит/сек
Каналы : 2 канала
Расположение каналов : Front: L R
Частота : 48,0 КГц
Частота кадров : 31,250 кадров/сек (1536 spf)
Метод сжатия : С потерями
Размер потока : 270 Мбайт (12%)
Выравнивание : Разделение по промежуткам
Продолжительность промежутка : 42 мс. (1,00 видеокадр)
Время предзагрузки промежутка : 500 мс.

Скриншот c названием фильма

If your ratio falls below 0.3, you will not be able to download Torrents! More about the rating.

[erzsebet.pl].t198.torrent
Torrent: Registered   [ 2017-12-02 16:18 ]

Download .torrent

Download

11 KB

Status: checked
Completed: 16 times
Size: 2.18 GB
terms.php

#1

02-Dec-2017 16:17

[Profile]  [PM] 
Display posts:    

You cannot post new topics in this forum
You cannot reply to topics in this forum
You cannot edit your posts in this forum
You cannot delete your posts in this forum
You cannot vote in polls in this forum
You cannot attach files in this forum
You can download files in this forum
User agreement
For copyright holders
Advertise on this site

Скачайте на халяву через торрент на трекере erzsebet.pl

!ATTENTION!
The site does not give electronic versions of products, and is engaged only in a collecting and cataloguing of the references sent and published at a forum by our readers. If you are the legal owner of any submitted material and do not wish that the reference to it was in our catalogue, contact us and we shall immediately remove her. Files for an exchange on tracker are given by users of a site, and the administration does not bear the responsibility for their maintenance. The request to not fill in the files protected by copyrights, and also files of the illegal maintenance!