Разнорабочий / Roustabout (Джон Рич / John Rich) [1964, США, Мелодрама, Драма, Музыка, DVDRip] MVO (студия "Кондор") + Original Eng

Reply to topic
DL-List and Torrent activity
Size:  1.37 GB   |    Registered:  3 years 1 month   |    Completed:  16 times

Seeder not seen: 3 years 1 month

 
   
 
 
Author Message

erzsebet.org ®

Longevity: 3 years 1 month

Posts: 47596

Post 02-Dec-2017 16:17

[Quote]

Разнорабочий / Roustabout
Страна: США
Жанр: Мелодрама, Драма, Музыка
Год выпуска: 1964
Продолжительность: 01:37:16
Перевод: Профессиональный (многоголосый закадровый) студия "Кондор" по заказу ГТРК "Культура"
Субтитры: нет
Оригинальная аудиодорожка: английский
Режиссер: Джон Рич / John Rich
В ролях: Элвис Пресли/Elvis Presley, Барбара Стэнвик/Barbara Stanwyck, Джоан Фриман/Joan Freeman, Лейф Эриксон/Leif Erickson, Сью Эни Лэнгдон/Sue Ane Langdon, Пэт Баттрем/Pat Buttram, Джоан Стейли/Joan Staley, Даббс Грир/Dabbs Greer, Стив Броди/Steve Brodie, Норман Грабовски/Norman Grabowski
Описание: Байкер и музыкант Чарли Роджерс решает приударить за местной красавицей, после чего её разгневанный отец спихивает его мотоцикл с дороги в канаву. На время починки своего железного коня, Чарли устраивается на работу в странствующую актёрскую труппу.
Сэмпл: http://multi-up.com/1170503
Качество видео: DVDRip
Формат видео: AVI
Видео: MPEG4, XviD, 704x288 (2.40:1), 25.000 fps, 1 623 Kbps (0.320 bit/pixel)
Аудио: AC-3, 48.0 KHz, 2 ch, 192 Kbps, CBR - русский
Аудио 2: AC-3, 48.0 KHz, 2 ch, 192 Kbps, CBR - английский

MediaInfo

Общее
Полное имя : M:\Разнорабочий.avi
Формат : AVI
Формат/Информация : Audio Video Interleave
Размер файла : 1,37 Гбайт
Продолжительность : 1 ч. 37 м.
Общий поток : 2021 Кбит/сек
Название фильма : Разнорабочий / Roustabout (1964)
Программа кодирования : VirtualDubMod 1.5.10.2 (build 2540/release)
Библиотека кодирования : VirtualDubMod build 2540/release
Авторское право : miha2154
Видео
Идентификатор : 0
Формат : MPEG-4 Visual
Профиль формата : Advanced [email protected]
Параметр BVOP формата : 1
Параметр QPel формата : Нет
Параметр GMC формата : Без точки перехода
Параметр матрицы формата : Выборочная
Идентификатор кодека : XVID
Идентификатор кодека/Подсказка : XviD
Продолжительность : 1 ч. 37 м.
Битрейт : 1623 Кбит/сек
Ширина : 704 пикселя
Высота : 288 пикселей
Соотношение сторон : 2,40:1
Частота кадров : 25,000 кадров/сек
Цветовое пространство : YUV
Субдискретизация насыщенности : 4:2:0
Битовая глубина : 8 бит
Тип развёртки : Прогрессивная
Метод сжатия : С потерями
Бит/(Пиксели*Кадры) : 0.320
Размер потока : 1,10 Гбайт (80%)
Библиотека кодирования : XviD 65
Аудио #1
Идентификатор : 1
Формат : AC-3
Формат/Информация : Audio Coding 3
Расширение режима : CM (complete main)
Параметр Endianness формата : Big
Идентификатор кодека : 2000
Продолжительность : 1 ч. 37 м.
Вид битрейта : Постоянный
Битрейт : 192 Кбит/сек
Каналы : 2 канала
Расположение каналов : Front: L R
Частота : 48,0 КГц
Частота кадров : 31,250 кадров/сек (1536 spf)
Метод сжатия : С потерями
Размер потока : 134 Мбайт (9%)
Выравнивание : Разделение по промежуткам
Продолжительность промежутка : 40 мс. (1,00 видеокадр)
Время предзагрузки промежутка : 500 мс.
Заголовок : Профессиональный (многоголосый закадровый) Культура
Аудио #2
Идентификатор : 2
Формат : AC-3
Формат/Информация : Audio Coding 3
Расширение режима : CM (complete main)
Параметр Endianness формата : Big
Идентификатор кодека : 2000
Продолжительность : 1 ч. 37 м.
Вид битрейта : Постоянный
Битрейт : 192 Кбит/сек
Каналы : 2 канала
Расположение каналов : Front: L R
Частота : 48,0 КГц
Частота кадров : 31,250 кадров/сек (1536 spf)
Метод сжатия : С потерями
Размер потока : 134 Мбайт (9%)
Выравнивание : Разделение по промежуткам
Продолжительность промежутка : 40 мс. (1,00 видеокадр)
Время предзагрузки промежутка : 500 мс.
Заголовок : Английский

Скриншоты


If your ratio falls below 0.3, you will not be able to download Torrents! More about the rating.

[erzsebet.pl].t200.torrent
Torrent: Registered [ 2017-12-02 16:18 ] · 8C85E563B1F39B9B368F7D8FFF78F87257A9AFC1

Download .torrent

Download

14 KB

Status: checked
Completed: 16 times
Size: 1.37 GB
terms.php
[Profile] [PM]
Display posts:    
Reply to topic

Current time is: 22-Jan 06:08

All times are UTC ± 0



You cannot post new topics in this forum
You cannot reply to topics in this forum
You cannot edit your posts in this forum
You cannot delete your posts in this forum
You cannot vote in polls in this forum
You cannot attach files in this forum
You can download files in this forum