Эти гламурные девушки / These Glamour Girls (C. Сильван Симон / S. Sylvan Simon) [1939, США, драма, комедия, DVDRip] VO + Original Eng

Reply to topic
DL-List and Torrent activity
Size:  1.37 GB   |    Registered:  3 years 1 month   |    Completed:  16 times

Seeder not seen: 3 years 1 month

 
   
 
 
Author Message

erzsebet.org ®

Longevity: 3 years 1 month

Posts: 47596

Post 02-Dec-2017 16:17

[Quote]

Эти гламурные девушки / These Glamour GirlsПроект посвящен 100-летию Марши Хант (17 октября 1917) и Энн Разерфорд (2 ноября 1917 - 11 июня 2012) Страна: США
Студия: Metro-Goldwyn-Mayer (MGM)
Жанр: драма, комедия
Год выпуска: 1939
Продолжительность: 01:18:44
Перевод: Одноголосый закадровый - Алексей Яковлев
Субтитры: нет
Оригинальная аудиодорожка: английский
Режиссер: C. Сильван Симон / S. Sylvan Simon
Композиторы: Дэвид Снелл / David Snell, Эдвард Уорд
Edward Ward

В ролях: Лана Тернер / Lana Turner ... Jane Thomas
Лью Эйрз / Lew Ayres ... Philip S. Griswold
Том Браун / Tom Brown ... Homer Ten Eyck
Ричард Карлсон / Richard Carlson ... Joe
Джейн Брайан / Jane Bryan ... Carol Christy

Анита Луис / Anita Louise ... Daphne Graves
Марша Хант / Marsha Hunt ... Betty Ainsbridge
Энн Разерфорд / Ann Rutherford ... Mary Rose Wilston
Мэри Бет Хьюз / Mary Beth Hughes ... Ann
Оуэн Дэвис мл. / Owen Davis Jr. ... Greg Smith
Эрнест Трукс / Ernest Truex ... Alumnus
Самнер Гетчелл / Sumner Getchell ... «Blimpy»
Питер Линд Хейз / Peter Lind Hayes (в титрах: Peter Hayes) ... Skel
Дон Кастл / Don Castle ... Jack
Том Коллинз / Tom Collins ... Tommy Torgler

Описание: Высший свет Нью-Йорка перевозбужден в ожидании предстоящей серии балов в престижном Колледже Кингсфорда. Накануне большого события Кингсфордский денди Филипп Гризволд-третий, сын богатого брокера с Уолл-стрит, и его соседи по комнате в колледже Гомер Тен Айк и Грег Смит наведываются в Нью-Йорк, где Фил напивается и приглашает на бал платную танцовщицу Джейн Томас, которая охотно принимает приглашение. Протрезвев, Фил забывает о сделанном приглашении, и чрезвычайно удивляется, когда Джейн появляется на балу, где он присутствует со своей подругой Кэрол Кристи...--Фильмография Ланы Тернер--БОЛЬШОЕ СПАСИБО:
Работа со звуком и реавторинг DVD - AlekceyR76
Перевод и озвучивание фильма - Алексей Яковлев
Также Большое Спасибо всем, кто принял участие в появлении перевода и озвучки к этому фильму:
Магда, Lafajet, jasenka, елена 22, yanaelisa, voostorg, борюська, surzhoks, cementit, HippopotamusIV, Ugo927, sindzi, spartakeynoir, GalaUkr, Лямдазонд, leoder
--Сэмпл: https://www.sendspace.com/file/1dql4p
Качество видео: DVDRip
Формат видео: AVI
Видео: XviD, 640x480 (1.33:1), 23.976 fps, 2093 Kbps
Аудио 1: AC3, 48.0 KHz, 2 ch., 192 Kbps (русский одноголосый закадровый перевод) - Алексей Яковлев
Аудио 2: AC3, 48.0 KHz, 2 ch., 192 Kbps (оригинальная английская звуковая дорожка)

MediaInfo

Общее
Полное имя : I:\раздачи\These Glamour Girls 1939\These Glamour Girls.avi
Формат : AVI
Формат/Информация : Audio Video Interleave
Размер файла : 1,37 Гбайт
Продолжительность : 1 ч. 18 м.
Общий поток : 2491 Кбит/сек
Программа кодирования : VirtualDubMod 1.5.10.3 | www.virtualdub-fr.org || (build 2550/release)
Библиотека кодирования : VirtualDubMod build 2550/release
Видео
Идентификатор : 0
Формат : MPEG-4 Visual
Профиль формата : Advanced [email protected]
Параметр BVOP формата : 2
Параметр QPel формата : Нет
Параметр GMC формата : Без точки перехода
Параметр матрицы формата : Default (H.263)
Идентификатор кодека : DX50
Идентификатор кодека/Подсказка : DivX 5
Продолжительность : 1 ч. 18 м.
Битрейт : 2093 Кбит/сек
Ширина : 640 пикселей
Высота : 480 пикселей
Соотношение сторон : 4:3
Частота кадров : 23,976 (24000/1001) кадра/сек
Цветовое пространство : YUV
Субдискретизация насыщенности : 4:2:0
Битовая глубина : 8 бит
Тип развёртки : Прогрессивная
Метод сжатия : С потерями
Бит/(Пиксели*Кадры) : 0.284
Размер потока : 1,15 Гбайт (84%)
Библиотека кодирования : XviD 73
Аудио #1
Идентификатор : 1
Формат : AC-3
Формат/Информация : Audio Coding 3
Параметр Endianness формата : Big
Идентификатор кодека : 2000
Продолжительность : 1 ч. 18 м.
Вид битрейта : Постоянный
Битрейт : 192 Кбит/сек
Каналы : 2 канала
Расположение каналов : Front: L R
Частота : 48,0 КГц
Частота кадров : 31,250 кадров/сек (1536 spf)
Битовая глубина : 16 бит
Метод сжатия : С потерями
Размер потока : 108 Мбайт (8%)
Выравнивание : Разделение по промежуткам
Продолжительность промежутка : 42 мс. (1,00 видеокадр)
Время предзагрузки промежутка : 500 мс.
ServiceKind/String : Complete Main
Аудио #2
Идентификатор : 2
Формат : AC-3
Формат/Информация : Audio Coding 3
Параметр Endianness формата : Big
Идентификатор кодека : 2000
Продолжительность : 1 ч. 18 м.
Вид битрейта : Постоянный
Битрейт : 192 Кбит/сек
Каналы : 2 канала
Расположение каналов : Front: L R
Частота : 48,0 КГц
Частота кадров : 31,250 кадров/сек (1536 spf)
Битовая глубина : 16 бит
Метод сжатия : С потерями
Размер потока : 108 Мбайт (8%)
Выравнивание : Разделение по промежуткам
Продолжительность промежутка : 42 мс. (1,00 видеокадр)
Время предзагрузки промежутка : 500 мс.
ServiceKind/String : Complete Main

If your ratio falls below 0.3, you will not be able to download Torrents! More about the rating.

[erzsebet.pl].t207.torrent
Torrent: Registered [ 2017-12-02 16:18 ] · 4104BAD87630FA00D404CEE841F9974F63AF735D

Download .torrent

Download

14 KB

Status: checked
Completed: 16 times
Size: 1.37 GB
terms.php
[Profile] [PM]
Display posts:    
Reply to topic

Current time is: 16-Jan 18:46

All times are UTC ± 0



You cannot post new topics in this forum
You cannot reply to topics in this forum
You cannot edit your posts in this forum
You cannot delete your posts in this forum
You cannot vote in polls in this forum
You cannot attach files in this forum
You can download files in this forum