Арабские приключения / Arabian Adventure (Кевин Коннор / Kevin Connor) [1979, Великобритания, фэнтези, приключения, DVDRip] MVO (Пятый канал)

Reply to topic
DL-List and Torrent activity
Size:  1.35 GB   |    Registered:  3 years 1 month   |    Completed:  16 times

Seeder not seen: 3 years 1 month

 
   
 
 
Author Message

erzsebet.org ®

Longevity: 3 years 1 month

Posts: 47596

Post 02-Dec-2017 16:17

[Quote]

Арабские приключения / Arabian Adventure
Год выпуска: 1979
Страна: Великобритания
Жанр: фэнтези, приключения
Продолжительность: 01:33:55
Перевод: Профессиональный (многоголосый закадровый) - Пятый канал
Субтитры: нет
Режиссер: Кевин Коннор / Kevin Connor
В ролях: Кристофер Ли / Caliph Alquazar, Майло О'Ши / Khasim, Оливер Тобиас / Prince Hasan, Эмма Сэммс / Princess Zuleira, Пунит Сира / Majeed, Джон Уаймэн / Bahloul, Джон Ратценбергер / Achmed, Шэйн Риммер / Abu, Сюзанн Даниэль / Eastern Dancer, Элизабет Уэлш / Beggarwoman-Мировая премьера: 5 июля 1979-Описание: Один злой волшебник разлучил прекрасного принца с его возлюбленной. Пока принц ищет свою девушку, маг ведет поиски волшебной розы, которая сделает его непобедимым. Он и не подозревает о том, что добрый уличный мальчишка подарил эту розу несчастному принцу. Он знал, что с ее помощью можно не только сделать мага непобедимым, но и уничтожить его колдовство…-Огромная благодарность:
dmitry2264 - видеоряд
smit009 - личная запись фильма с Пятого Канала.
JUSTKANT - синхронизация перевода.-Данный перевод на трекере появляется впервые!-
Рейтинг

MPAA: G - Нет возрастных ограничений.-Качество видео: DVDRip
Формат видео: AVI -> //Сэмпл//
Видео: XviD, 720x400 (16:9), 25.000 fps, 1820 kbps
Аудио:
1 - 48 khz, AC3 Dolby Digital, 2/0 (L,R) ch, ~224 kbps [Пятый канал] TVRip

MediaInfo

General
Complete name : D:\Арабские приключения (Пятый канал).avi
Format : AVI
Format/Info : Audio Video Interleave
File size : 1.35 GiB
Duration : 1 h 33 min
Overall bit rate : 2 054 kb/s
Movie name : Арабские приключения / Arabian Adventure (Пятый канал)
Director : JUSTKANT
Writing application : VirtualDubMod 1.5.10.3 (build 2550/release)
Copyright : Качество звука: TVRip (smit009)
Video
ID : 0
Format : MPEG-4 Visual
Format profile : Advanced [email protected]
Format settings, BVOP : 1
Format settings, QPel : No
Format settings, GMC : No warppoints
Format settings, Matrix : Default (MPEG)
Codec ID : XVID
Codec ID/Hint : XviD
Duration : 1 h 33 min
Bit rate : 1 820 kb/s
Width : 720 pixels
Height : 400 pixels
Display aspect ratio : 16:9
Frame rate : 25.000 FPS
Color space : YUV
Chroma subsampling : 4:2:0
Bit depth : 8 bits
Scan type : Progressive
Compression mode : Lossy
Bits/(Pixel*Frame) : 0.253
Stream size : 1.19 GiB (89%)
Writing library : XviD 1.2.1 (UTC 2008-12-04)
Audio
ID : 1
Format : AC-3
Format/Info : Audio Coding 3
Format settings, Endianness : Big
Codec ID : 2000
Duration : 1 h 33 min
Bit rate mode : Constant
Bit rate : 224 kb/s
Channel(s) : 2 channels
Channel positions : Front: L R
Sampling rate : 48.0 kHz
Frame rate : 31.250 FPS (1536 SPF)
Bit depth : 16 bits
Compression mode : Lossy
Stream size : 150 MiB (11%)
Alignment : Split accross interleaves
Interleave, duration : 40 ms (1.00 video frame)
Interleave, preload duratio : 500 ms
Title : Пятый канал (TVRip)
Service kind : Complete Main

Скриншот c названием фильма

Скриншоты

If your ratio falls below 0.3, you will not be able to download Torrents! More about the rating.

[erzsebet.pl].t211.torrent
Torrent: Registered [ 2017-12-02 16:18 ] · 6B87F42DA040F64C49CD13220E664F4D012CD716

Download .torrent

Download

14 KB

Status: checked
Completed: 16 times
Size: 1.35 GB
terms.php
[Profile] [PM]
Display posts:    
Reply to topic

Current time is: 20-Jan 06:58

All times are UTC ± 0



You cannot post new topics in this forum
You cannot reply to topics in this forum
You cannot edit your posts in this forum
You cannot delete your posts in this forum
You cannot vote in polls in this forum
You cannot attach files in this forum
You can download files in this forum