Китайский квартал / Chinatown (Роман Полански / Roman Polanski) [1974, США, триллер, криминал, детектив, HDRip] AVO (Андрей Гаврилов)

Reply to topic
DL-List and Torrent activity
Size:  1.45 GB   |    Registered:  3 years 1 month   |    Completed:  16 times

Seeder not seen: 3 years 1 month

 
   
 
 
Author Message

erzsebet.org ®

Longevity: 3 years 1 month

Posts: 47596

Post 02-Dec-2017 16:17

[Quote]

Китайский квартал / Chinatown
Страна: США
Жанр: триллер, криминал, детектив
Год выпуска: 1974
Продолжительность: 02:10:31

Перевод: Авторский (одноголосый закадровый) Андрей Гаврилов
Субтитры: нет
Режиссер: Роман Полански / Roman Polanski

В ролях: Джек Николсон, Фэй Данауэй, Джон Хьюстон, Перри Лопес, Джон Хиллерман, Даррел Зверлинг, Дайан Лэдд, Рой Дженсон, Роман Полански
Описание: Гиттес работает частным детективом, он специализируется на одном типе дел – слежка за неверными супругами. Во время очередного дела Гиттес оказывается одурачен женщиной, которая выдавала себя за жену главы городского водоснабжения. Вскоре детектив находит настоящую жену этого человека, а еще через некоторое время эта женщина, по имени Эвелин, становится вдовой. Гиттес попадает в водоворот странных событий, корни которых уходят в высшие политические круги Лос-Анджелеса, простого частного детектива эти жернова власти раздавят и не заметят....
Рейтинг фильма : -- IMDB / 8,2
Сэмпл: http://multi-up.com/1169645
Качество видео: HDRip (Исходник Chinatown.1974.BDRip.1080p.Rus.Eng.mkv / NNM-Club)
Формат видео: AVI
Видео: XviD 73, 720x304, (2,35:1), 23,976 fps, 1394 Кбит/с, 8 бит, 0.27 bit/pixel
Аудио: Русский (АС3, 2 ch (Front: L R), 48,0 KHz, 192 Kbps)

MediaInfo

Общее
Полное имя : D:\Видеофильмы\В и д е о\Китайский квартал (детектив, криминал 1974 год).avi
Формат : AVI
Формат/Информация : Audio Video Interleave
Размер файла : 1,45 Гбайт
Продолжительность : 2 ч. 10 м.
Общий поток : 1595 Кбит/сек
Программа кодирования : VirtualDubMod 1.5.10.3 | www.virtualdub-fr.org || (build 2550/release)
Библиотека кодирования : VirtualDubMod build 2550/release
Видео
Идентификатор : 0
Формат : MPEG-4 Visual
Профиль формата : Advanced [email protected]
Параметр BVOP формата : 2
Параметр QPel формата : Нет
Параметр GMC формата : Без точки перехода
Параметр матрицы формата : Выборочная
Идентификатор кодека : XVID
Идентификатор кодека/Подсказка : XviD
Продолжительность : 2 ч. 10 м.
Битрейт : 1394 Кбит/сек
Ширина : 720 пикселей
Высота : 304 пикселя
Соотношение сторон : 2,35:1
Частота кадров : 23,976 (23976/1000) кадра/сек
Цветовое пространство : YUV
Субдискретизация насыщенности : 4:2:0
Битовая глубина : 8 бит
Тип развёртки : Прогрессивная
Метод сжатия : С потерями
Бит/(Пиксели*Кадры) : 0.266
Размер потока : 1,27 Гбайт (87%)
Библиотека кодирования : XviD 73
Аудио
Идентификатор : 1
Формат : AC-3
Формат/Информация : Audio Coding 3
Расширение режима : CM (complete main)
Параметр Endianness формата : Big
Идентификатор кодека : 2000
Продолжительность : 2 ч. 10 м.
Вид битрейта : Постоянный
Битрейт : 192 Кбит/сек
Каналы : 2 канала
Расположение каналов : Front: L R
Частота : 48,0 КГц
Частота кадров : 31,250 кадров/сек (1536 spf)
Метод сжатия : С потерями
Размер потока : 179 Мбайт (12%)
Выравнивание : Разделение по промежуткам
Продолжительность промежутка : 42 мс. (1,00 видеокадр)
Время предзагрузки промежутка : 500 мс.

Скриншот c названием фильма

Скриншоты

If your ratio falls below 0.3, you will not be able to download Torrents! More about the rating.

[erzsebet.pl].t221.torrent
Torrent: Registered [ 2017-12-02 16:18 ] · 675FEC671697EC0B91A78D3C4DF9BD173B1B65A1

Download .torrent

Download

15 KB

Status: checked
Completed: 16 times
Size: 1.45 GB
terms.php
[Profile] [PM]
Display posts:    
Reply to topic

Current time is: 20-Jan 07:52

All times are UTC ± 0



You cannot post new topics in this forum
You cannot reply to topics in this forum
You cannot edit your posts in this forum
You cannot delete your posts in this forum
You cannot vote in polls in this forum
You cannot attach files in this forum
You can download files in this forum