Герои ничего не боятся / У героев не мерзнут уши / Les Heros n'ont pas froid aux oreilles (Шарль Немес / Charles Nemes) [1979, Франция, Комедия, Драма, DVDRip] DVO (ОРТ) + Original Fre

Reply to topic
DL-List and Torrent activity
Size:  1.37 GB   |    Registered:  3 years 1 month   |    Completed:  16 times

Seeder not seen: 3 years 1 month

 
   
 
 
Author Message

erzsebet.org ®

Longevity: 3 years 1 month

Posts: 47596

Post 02-Dec-2017 16:22

[Quote]

Герои ничего не боятся / У героев не мерзнут уши / Les Heros n'ont pas froid aux oreilles
Страна: Франция
Жанр: Комедия, Драма
Год выпуска: 1979
Продолжительность: 01:19:01
Перевод: Профессиональный (двухголосый закадровый) ОРТ
Субтитры: нет
Оригинальная аудиодорожка: Французский
Режиссер: Шарль Немес / Charles Nemes
В ролях: Жерар Жюньо / Gerard Jugnot, Даниель Отей / Daniel Auteuil, Анн Жуссе / Anne Jousset, Анри Гибе / Henri Guybet, Ролан Жиро / Roland Giraud, Жерар Ланвен / Gerard Lanvin, Жозиан Баласко / Josiane Balasko, Мишель Блан / Michel Blanc, Мари-Анн Шазель / Marie-Anne Chazel, Кристиан Клавье / Christian Clavier, Тьерри Лермитт / Thierry Lhermitte, Мартин Ламотт / Martin Lamotte
Описание: Два братца, Жан-Бернар (Даниель Отей) и Пьер (Жерар Жуньо), - холостяки. Оба находятся в постоянном поиске женщины, но неудачи подстерегают их на каждом шагу. И вот, наконец, в доме братьев появляется девушка, которую они подобрали во время автомобильного путешествия. Каждый из двух чудаков хочет понравиться Карин (Анн Жуссе). Чтобы привлечь ее внимание, они готовы творить невероятные глупости. Но настало время решающих действий. Кого выберет Карин?
Доп. информация: Рип с моего DVD http://erzsebet.org/forum/viewtopic.php?t=5457761 за рус звук дорожку Спасибо Rusalochka

Сэмпл: http://multi-up.com/1169619
Качество видео: DVDRip
Формат видео: AVI
Видео: 672х400, 25.000 fps, 2 085 Kbps
Аудио 1: Русский (AC3 192 kbps 2 ch 48.0 KHz)
Аудио 2: Французский (AC3 224 kbps 2 ch 48.0 KHz)
Релиз:

MediaInfo

General
Complete name : C:\Documents and Settings\admin\Мои документы\Downloads\Les Heros n'ont pas froid aux oreilles 1979.avi
Format : AVI
Format/Info : Audio Video Interleave
File size : 1.37 GiB
Duration : 1h 19mn
Overall bit rate : 2 478 Kbps
Writing application : VirtualDubMod 1.5.4.1 (build 2178/release)
Writing library : VirtualDubMod build 2178/release
Video
ID : 0
Format : MPEG-4 Visual
Format profile : Advanced [email protected]
Format settings, BVOP : No
Format settings, QPel : No
Format settings, GMC : No warppoints
Format settings, Matrix : Custom
Codec ID : XVID
Codec ID/Hint : XviD
Duration : 1h 19mn
Bit rate : 2 085 Kbps
Width : 672 pixels
Height : 400 pixels
Display aspect ratio : 1.680
Frame rate : 25.000 fps
Color space : YUV
Chroma subsampling : 4:2:0
Bit depth : 8 bits
Scan type : Progressive
Compression mode : Lossy
Bits/(Pixel*Frame) : 0.310
Stream size : 1.15 GiB (84%)
Writing library : XviD 64
Audio #1
ID : 1
Format : AC-3
Format/Info : Audio Coding 3
Mode extension : CM (complete main)
Format settings, Endianness : Big
Codec ID : 2000
Duration : 1h 19mn
Bit rate mode : Constant
Bit rate : 192 Kbps
Channel(s) : 2 channels
Channel positions : Front: L R
Sampling rate : 48.0 KHz
Bit depth : 16 bits
Compression mode : Lossy
Stream size : 109 MiB (8%)
Alignment : Split accross interleaves
Interleave, duration : 96 ms (2.40 video frames)
Interleave, preload duration : 96 ms
Audio #2
ID : 2
Format : AC-3
Format/Info : Audio Coding 3
Mode extension : CM (complete main)
Format settings, Endianness : Big
Codec ID : 2000
Duration : 1h 19mn
Bit rate mode : Constant
Bit rate : 192 Kbps
Channel(s) : 2 channels
Channel positions : Front: L R
Sampling rate : 48.0 KHz
Bit depth : 16 bits
Compression mode : Lossy
Stream size : 109 MiB (8%)
Alignment : Split accross interleaves
Interleave, duration : 96 ms (2.40 video frames)
Interleave, preload duration : 96 ms

Скриншот c названием фильма

Скриншоты

If your ratio falls below 0.3, you will not be able to download Torrents! More about the rating.

[erzsebet.pl].t224.torrent
Torrent: Registered [ 2017-12-02 16:22 ] · 2F0A126F22EC6A45DF798D14FCB27F93EFF8DCBA

Download .torrent

Download

14 KB

Status: checked
Completed: 16 times
Size: 1.37 GB
terms.php
[Profile] [PM]
Display posts:    
Reply to topic

Current time is: 28-Jan 08:05

All times are UTC ± 0



You cannot post new topics in this forum
You cannot reply to topics in this forum
You cannot edit your posts in this forum
You cannot delete your posts in this forum
You cannot vote in polls in this forum
You cannot attach files in this forum
You can download files in this forum