Девушки! Девушки! Девушки! / Девочки! Девочки! Девочки! / Girls! Girls! Girls! (Норман Таурог / Norman Taurog) [1962, США, комедия, музыкальный, DVDRip] MVO (студия "Кондор") + Original Eng

Reply to topic
DL-List and Torrent activity
Size:  1.46 GB   |    Registered:  3 years 1 month   |    Completed:  16 times

Seeder not seen: 3 years 1 month

 
   
 
 
Author Message

erzsebet.org ®

Longevity: 3 years 1 month

Posts: 47596

Post 02-Dec-2017 16:22

[Quote]

Девушки! Девушки! Девушки! / Девочки! Девочки! Девочки! / Girls! Girls! Girls!
Страна: США
Жанр: комедия, музыкальный
Год выпуска: 1962
Продолжительность: 01:38:49
Перевод: Профессиональный (многоголосый закадровый) студия "Кондор"
Субтитры: нет
Оригинальная аудиодорожка: английский
Режиссер: Норман Таурог / Norman Taurog
В ролях: Элвис Пресли, Стелла Стивенс, Джереми Слейт, Бенсон Фонг, Роберт Страусс
Описание: Росс Карпентер больше всего в жизни любит волю, море и девушек. Жизнь его течет легко и беззаботно: днем он осуществляет чартерные рыболовные рейсы, а вечером - подрабатывает в баре певцом. И лишь одна проблема не дает покоя Россу - кого предпочесть: роковую красавицу, певицу Робин, или просто очаровательную девушку Лаурел... Когда он узнает, что его босс уезжает в Аризону, Росс должен найти способ купить Westwind, лодку, которую он и его отец строили.
Сэмпл: http://multi-up.com/1169429
Качество видео: DVDRip
Формат видео: AVI
Видео: MPEG4, XviD, 704x384 (16:9), 23.976 fps, 1 468 Kbps (0.226 bit/pixel)
Аудио: AC-3, 48.0 KHz, 2 ch, 192 Kbps, CBR - русский
Аудио 2: AC-3, 48.0 KHz, 6 ch, 448 Kbps, CBR - английский

MediaInfo

Общее
Полное имя : M:\Девушки! Девушки! Девушки!.avi
Формат : AVI
Формат/Информация : Audio Video Interleave
Размер файла : 1,46 Гбайт
Продолжительность : 1 ч. 38 м.
Общий поток : 2122 Кбит/сек
Название фильма : Девушки! Девушки! Девушки! / Девочки! Девочки! Девочки! / Girls! Girls! Girls! (1962)
Программа кодирования : VirtualDubMod 1.5.10.2 (build 2540/release)
Библиотека кодирования : VirtualDubMod build 2540/release
Авторское право : miha2154
Видео
Идентификатор : 0
Формат : MPEG-4 Visual
Профиль формата : Advanced [email protected]
Параметр BVOP формата : 1
Параметр QPel формата : Нет
Параметр GMC формата : Без точки перехода
Параметр матрицы формата : Выборочная
Идентификатор кодека : XVID
Идентификатор кодека/Подсказка : XviD
Продолжительность : 1 ч. 38 м.
Битрейт : 1468 Кбит/сек
Ширина : 704 пикселя
Высота : 384 пикселя
Соотношение сторон : 1,85:1
Частота кадров : 23,976 (23976/1000) кадра/сек
Цветовое пространство : YUV
Субдискретизация насыщенности : 4:2:0
Битовая глубина : 8 бит
Тип развёртки : Прогрессивная
Метод сжатия : С потерями
Бит/(Пиксели*Кадры) : 0.226
Размер потока : 1,01 Гбайт (69%)
Библиотека кодирования : XviD 65
Аудио #1
Идентификатор : 1
Формат : AC-3
Формат/Информация : Audio Coding 3
Расширение режима : CM (complete main)
Параметр Endianness формата : Big
Идентификатор кодека : 2000
Продолжительность : 1 ч. 38 м.
Вид битрейта : Постоянный
Битрейт : 192 Кбит/сек
Каналы : 2 канала
Расположение каналов : Front: L R
Частота : 48,0 КГц
Частота кадров : 31,250 кадров/сек (1536 spf)
Метод сжатия : С потерями
Размер потока : 136 Мбайт (9%)
Выравнивание : Разделение по промежуткам
Продолжительность промежутка : 42 мс. (1,00 видеокадр)
Время предзагрузки промежутка : 500 мс.
Заголовок : Профессиональный (многоголосый закадровый) Культура
Аудио #2
Идентификатор : 2
Формат : AC-3
Формат/Информация : Audio Coding 3
Расширение режима : CM (complete main)
Параметр Endianness формата : Big
Идентификатор кодека : 2000
Продолжительность : 1 ч. 38 м.
Вид битрейта : Постоянный
Битрейт : 448 Кбит/сек
Каналы : 6 каналов
Расположение каналов : Front: L C R, Side: L R, LFE
Частота : 48,0 КГц
Частота кадров : 31,250 кадров/сек (1536 spf)
Метод сжатия : С потерями
Размер потока : 317 Мбайт (21%)
Выравнивание : Разделение по промежуткам
Продолжительность промежутка : 42 мс. (1,00 видеокадр)
Время предзагрузки промежутка : 500 мс.
Заголовок : Английский

Скриншоты


If your ratio falls below 0.3, you will not be able to download Torrents! More about the rating.

[erzsebet.pl].t229.torrent
Torrent: Registered [ 2017-12-02 16:22 ] · 2EFB3DAB8C5F723915C914882E8D447CE8A97540

Download .torrent

Download

15 KB

Status: checked
Completed: 16 times
Size: 1.46 GB
terms.php
[Profile] [PM]
Display posts:    
Reply to topic

Current time is: 18-Jan 00:28

All times are UTC ± 0



You cannot post new topics in this forum
You cannot reply to topics in this forum
You cannot edit your posts in this forum
You cannot delete your posts in this forum
You cannot vote in polls in this forum
You cannot attach files in this forum
You can download files in this forum