Дуэль / Duel (Стивен Спилберг / Steven Spielberg) [1971, США, боевик, триллер, BDRip] MVO (Россия)

Reply to topic
DL-List and Torrent activity
Size:  1.36 GB   |    Registered:  3 years 1 month   |    Completed:  16 times

Seeder not seen: 3 years 1 month

 
   
 
 
Author Message

erzsebet.org ®

Longevity: 3 years 1 month

Posts: 47596

Post 02-Dec-2017 16:22

[Quote]

Дуэль / Duel
Год выпуска: 1971
Страна: США
Жанр: боевик, триллер
Продолжительность: 01:29:14
Перевод: Профессиональный (многоголосый закадровый) - Россия
Субтитры: нет
Режиссер: Стивен Спилберг / Steven Spielberg
В ролях: Деннис Уивер / David Mann, Джэклин Скотт / Mrs. Mann, Эдди Файрстоун / Cafe Owner, Лу Фриззелл / Bus Driver, Джин Динарски / Man in Cafe, Люсиль Бенсон / Lady at Snakerama, Тим Херберт / Gas Station Attendant, Чарльз Сил / Old Man, Ширли О'Хара / Waitress, Александр Локвуд / Old Man in Car-Мировая премьера: 10 ноября 1971-Описание: Сюжет фильма развивается на бескрайней дороге через пустыню, где начинается смертельная гонка-дуэль. За легковой автомашиной не просто гонится бензовоз с невидимым водителем, норовя ее уничтожить, а как будто некий рок, как в греческой трагедии, неотступно преследует человека.-Огромная благодарность:
Shevon76 - видеоряд
pasific2013 - личная запись фильма с телеканала Россия через видеомагнитофон и оцифровка звука с видеокассеты.
JUSTKANT - синхронизация перевода.-Данный перевод на трекере появляется впервые.-На русский язык фильм озвучен по заказу телеканала Россия в 2005 году.
Текст читают Александр Котов, Андрей Казанцев и Людмила Ильина.-
Рейтинг

MPAA: PG - Рекомендуется присутствие родителей.-Качество видео: BDRip
Формат видео: AVI -> //Сэмпл//
Видео: XviD, 704x384 (1.85:1), 23.976 fps, 1946 kbps
Аудио:
1 - 48 khz, AC3 Dolby Digital, 2/0 (L,R) ch, ~224 kbps [Россия] VHSRip-ТВ

MediaInfo

General
Complete name : D:\Дуэль (Россия).avi
Format : AVI
Format/Info : Audio Video Interleave
File size : 1.36 GiB
Duration : 1 h 29 min
Overall bit rate : 2 179 kb/s
Movie name : Дуэль / Duel (Россия)
Director : JUSTKANT
Writing application : VirtualDubMod 1.5.10.3 (build 2550/release)
Copyright : На русский язык фильм озвучен по заказу телеканала "Россия" в 2005 году
Comment : Качество звука: VHSRipТВ (pasific2013)
Video
ID : 0
Format : MPEG-4 Visual
Format profile : Advanced [email protected]
Format settings, BVOP : 1
Format settings, QPel : No
Format settings, GMC : No warppoints
Format settings, Matrix : Custom
Codec ID : XVID
Codec ID/Hint : XviD
Duration : 1 h 29 min
Bit rate : 1 946 kb/s
Width : 704 pixels
Height : 384 pixels
Display aspect ratio : 1.85:1
Frame rate : 23.976 (24000/1001) FPS
Color space : YUV
Chroma subsampling : 4:2:0
Bit depth : 8 bits
Scan type : Progressive
Compression mode : Lossy
Bits/(Pixel*Frame) : 0.300
Stream size : 1.21 GiB (89%)
Writing library : XviD 65
Audio
ID : 1
Format : AC-3
Format/Info : Audio Coding 3
Format settings, Endianness : Big
Codec ID : 2000
Duration : 1 h 29 min
Bit rate mode : Constant
Bit rate : 224 kb/s
Channel(s) : 2 channels
Channel positions : Front: L R
Sampling rate : 48.0 kHz
Frame rate : 31.250 FPS (1536 SPF)
Bit depth : 16 bits
Compression mode : Lossy
Stream size : 143 MiB (10%)
Alignment : Split accross interleaves
Interleave, duration : 42 ms (1.00 video frame)
Interleave, preload duratio : 500 ms
Title : Россия: Александр Котов, Андрей Казанцев и Марина Дюжева
Service kind : Complete Main

Скриншот c названием фильма

Скриншоты

If your ratio falls below 0.3, you will not be able to download Torrents! More about the rating.

[erzsebet.pl].t250.torrent
Torrent: Registered [ 2017-12-02 16:22 ] · 1EA67D54B8064BE77962AB9ED1103EE75B2B6A49

Download .torrent

Download

14 KB

Status: checked
Completed: 16 times
Size: 1.36 GB
terms.php
[Profile] [PM]
Display posts:    
Reply to topic

Current time is: 20-Jan 22:12

All times are UTC ± 0



You cannot post new topics in this forum
You cannot reply to topics in this forum
You cannot edit your posts in this forum
You cannot delete your posts in this forum
You cannot vote in polls in this forum
You cannot attach files in this forum
You can download files in this forum