Леди Удача / Lucky Lady (Стэнли Донен / Stanley Donen) [1975, США, комедия, криминал, DVDRip] 2xMVO + Original Eng

Reply to topic
DL-List and Torrent activity
Size:  2.12 GB   |    Registered:  3 years 1 month   |    Completed:  16 times

Seeder not seen: 3 years 1 month

 
   
 
 
Author Message

erzsebet.org ®

Longevity: 3 years 1 month

Posts: 47596

Post 02-Dec-2017 16:22

[Quote]

Леди Удача / Lucky Lady
Страна: США
Жанр: комедия, криминал
Год выпуска: 1975
Продолжительность: 1:57:49
Перевод: Профессиональный (многоголосый закадровый) 1 канал
Перевод 2: Профессиональный (многоголосый закадровый) 5 канал
Субтитры: нет
Оригинальная аудиодорожка: английский
Режиссер: Стэнли Донен / Stanley Donen
В ролях: Джин Хэкмен, Лайза Миннелли, Берт Рейнольдс, Джеффри Льюис, Джон Хиллерман, Робби Бенсон, Майкл Хордерн, Энтони Холланд, Джон МакЛайэм, Вэл Эвери, Луис Гасс, Уильям Бассетт
Описание: Действие фильма происходит во времена "сухого закона". Молодая вдова Клэр после смерти мужа становится хозяйкой ночного заведения. Она делает все, чтобы привлечь клиентов, но дела идут плохо. Тогда ей приходит в голову мысль попробовать переправить партию спиртного из Мексики в Сан-Диего. Для этого Клэр кооперируется с Кибби и Уокером, двумя "джентльменами удачи", ловкими бутлегерами, курсирующими между Мексикой и Штатами с подпольной выпивкой на борту небольшой лодочки под названием "Леди Удача". Но оба друга влюбляются в Клэр, рискуя поставить под удар и свою дружбу, и бизнес, а Клэр... влюбляется в них обоих.
Доп. информация: Исходный ДВД http://erzsebet.org/forum/viewtopic.php?t=3480284 (спасибо IVH).
Дорожка 1 канала записана самостоятельно с цифрового кабельного DVB.
Сэмпл: http://multi-up.com/1168039
Качество видео: DVDRip
Формат видео: AVI
Видео: XviD, 704x384 (1,85:1), 23,976 fps, ~1975 kbps
Аудио: AC3, 48 khz, 2 ch, 192 kbps - 1 канал
Аудио 2: AC3, 48 khz, 2 ch, 192 kbps - 5 канал
Аудио 3: AC3, 48 khz, 2 ch, 192 kbps - English

MediaInfo

Общее
Полное имя : D:\Torrents\Lucky Lady [DVDRip 1975].avi
Формат : AVI
Формат/Информация : Audio Video Interleave
Профиль формата : OpenDML
Размер файла : 2,12 Гбайт
Продолжительность : 1 ч. 57 м.
Общий поток : 2575 Кбит/сек
Программа кодирования : VirtualDubMod 1.5.10.2 (build 2540/release)
Библиотека кодирования : VirtualDubMod build 2540/release
Видео
Идентификатор : 0
Формат : MPEG-4 Visual
Профиль формата : Advanced [email protected]
Параметр BVOP формата : 1
Параметр QPel формата : Нет
Параметр GMC формата : Без точки перехода
Параметр матрицы формата : Default (MPEG)
Идентификатор кодека : XVID
Идентификатор кодека/Подсказка : XviD
Продолжительность : 1 ч. 57 м.
Битрейт : 1974 Кбит/сек
Ширина : 704 пикселя
Высота : 384 пикселя
Соотношение сторон : 1,85:1
Частота кадров : 23,976 (24000/1001) кадра/сек
Цветовое пространство : YUV
Субдискретизация насыщенности : 4:2:0
Битовая глубина : 8 бит
Тип развёртки : Прогрессивная
Метод сжатия : С потерями
Бит/(Пиксели*Кадры) : 0.305
Размер потока : 1,62 Гбайт (77%)
Библиотека кодирования : XviD 1.2.1 (UTC 2008-12-04)
Аудио #1
Идентификатор : 1
Формат : AC-3
Формат/Информация : Audio Coding 3
Параметр Endianness формата : Big
Идентификатор кодека : 2000
Продолжительность : 1 ч. 57 м.
Вид битрейта : Постоянный
Битрейт : 192 Кбит/сек
Каналы : 2 канала
Расположение каналов : Front: L R
Частота : 48,0 КГц
Частота кадров : 31,250 кадров/сек (1536 spf)
Битовая глубина : 16 бит
Метод сжатия : С потерями
Размер потока : 162 Мбайт (7%)
Выравнивание : Разделение по промежуткам
Продолжительность промежутка : 42 мс. (1,00 видеокадр)
Время предзагрузки промежутка : 500 мс.
ServiceKind/String : Complete Main
Аудио #2
Идентификатор : 2
Формат : AC-3
Формат/Информация : Audio Coding 3
Параметр Endianness формата : Big
Идентификатор кодека : 2000
Продолжительность : 1 ч. 57 м.
Вид битрейта : Постоянный
Битрейт : 192 Кбит/сек
Каналы : 2 канала
Расположение каналов : Front: L R
Частота : 48,0 КГц
Частота кадров : 31,250 кадров/сек (1536 spf)
Битовая глубина : 16 бит
Метод сжатия : С потерями
Размер потока : 162 Мбайт (7%)
Выравнивание : Разделение по промежуткам
Продолжительность промежутка : 42 мс. (1,00 видеокадр)
Время предзагрузки промежутка : 500 мс.
ServiceKind/String : Complete Main
Аудио #3
Идентификатор : 3
Формат : AC-3
Формат/Информация : Audio Coding 3
Параметр Endianness формата : Big
Идентификатор кодека : 2000
Продолжительность : 1 ч. 57 м.
Вид битрейта : Постоянный
Битрейт : 192 Кбит/сек
Каналы : 2 канала
Расположение каналов : Front: L R
Частота : 48,0 КГц
Частота кадров : 31,250 кадров/сек (1536 spf)
Битовая глубина : 16 бит
Метод сжатия : С потерями
Размер потока : 162 Мбайт (7%)
Выравнивание : Разделение по промежуткам
Продолжительность промежутка : 42 мс. (1,00 видеокадр)
Время предзагрузки промежутка : 500 мс.
ServiceKind/String : Complete Main

Скриншот c названием фильма

Скриншоты

If your ratio falls below 0.3, you will not be able to download Torrents! More about the rating.

[erzsebet.pl].t254.torrent
Torrent: Registered [ 2017-12-02 16:22 ] · 84E6298C1B33DA9A482985AF82BF4CA4A5BF2337

Download .torrent

Download

11 KB

Status: checked
Completed: 16 times
Size: 2.12 GB
terms.php
[Profile] [PM]
Display posts:    
Reply to topic

Current time is: 17-Jan 18:46

All times are UTC ± 0



You cannot post new topics in this forum
You cannot reply to topics in this forum
You cannot edit your posts in this forum
You cannot delete your posts in this forum
You cannot vote in polls in this forum
You cannot attach files in this forum
You can download files in this forum