Призрак замка Моррисвилль / Fantom Morrisvillu (Борживой Земан / Borivoj Zeman) [1966, Чехословакия, комедия, VHSRip] [Советская прокатная копия] Dub (Горького)

Reply to topic
DL-List and Torrent activity
Size:  682 MB   |    Registered:  3 years 1 month   |    Completed:  16 times

Seeder not seen: 3 years 1 month

 
   
 
 
Author Message

erzsebet.org ®

Longevity: 3 years 1 month

Posts: 47596

Post 02-Dec-2017 16:22

[Quote]

Призрак замка Моррисвилль / Fantom Morrisvillu [Советская прокатная копия]- Страна: Чехословакия
Жанр: комедия
Год выпуска: 1966
Продолжительность: 01:25:35-Перевод: Профессиональный (дублированный) - Киностудия им. М. Горького
Субтитры: нет-Режиссер: Борживой Земан / Borivoj Zeman
В ролях: Ольдржих Новы, Квета Фиалова, Яна Новакова, Вит Ольмер, Вальдемар Матушка, Ярослав Марван, Франтишек Филиповски, Ян Скопечек, Ярослав Розсивал, Отто Шиманек, Власта Фабианова, Любомир Костелка, Рудольф Дейл...- | Релиз: -Описание: Владелец популярного журнала о светской жизни дает репортеру уголовной хроники Алену Пинкертону весьма странное задание. Честолюбивый красавец должен отправиться в замок Моррисвилль, где состоится бракосочетание сэра Морриса Ганнибала и леди Кларенс Гамильтон.
Молодой репортер решительно настроен написать хороший материал, и его не пугают даже зловещие угрозы в адрес гостей мероприятия. Наоборот — атмосфера опасности и тайны только подогревает любопытство деятельного журналиста. Детективная интрига приобретает особую остроту, когда из тюрьмы под покровом густого тумана совершает дерзкий побег главарь бандитской шайки Мануэль Диас.
Обаятельный бандит состоит в шокирующе-близких отношениях с будущей хозяйкой замка, и он намерен использовать это обстоятельство в своих грязных корыстных целях. Мошенник охотится за сокровищами, Призрак охотится за ним, а старинный замок Моррисвилль неохотно раскрываетсвои секреты мужественному репортеру с именем и призванием «сыщика экстра-класса».-Семпл: http://sendfile.su/1360876-Тип релиза: VHSRip
Контейнер: AVI
Видео: 608x464 (1.31:1), 25 fps, DivX Codec 5.2.1 build 1328 ~1023 kbps avg, 0.14 bit/pixel
Аудио: Русский, 44.100 kHz, MPEG Layer 3, 1 ch, ~80.00 kbps avg

MediaInfo

General
Complete name : Призрак замка Моррисвилль 1966 Dub Горького.avi
Format : AVI
Format/Info : Audio Video Interleave
File size : 682 MiB
Duration : 1 h 25 min
Overall bit rate : 1 113 kb/s
Writing library : VirtualDub build 35491/release
Video
ID : 0
Format : MPEG-4 Visual
Format settings, BVOP : 1
Format settings, QPel : No
Format settings, GMC : No warppoints
Format settings, Matrix : Default (H.263)
Codec ID : DX50
Codec ID/Hint : DivX 5
Duration : 1 h 25 min
Bit rate : 1 024 kb/s
Nominal bit rate : 6 951 kb/s
Width : 608 pixels
Height : 464 pixels
Display aspect ratio : 4:3
Frame rate : 25.000 FPS
Color space : YUV
Chroma subsampling : 4:2:0
Bit depth : 8 bits
Scan type : Progressive
Compression mode : Lossy
Bits/(Pixel*Frame) : 0.145
Stream size : 627 MiB (92%)
Writing library : DivX 5.2.1 (WaffleDay) (UTC 2004-09-08)
Audio
ID : 1
Format : MPEG Audio
Format version : Version 1
Format profile : Layer 3
Codec ID : 55
Codec ID/Hint : MP3
Duration : 1 h 25 min
Bit rate mode : Constant
Bit rate : 80.0 kb/s
Channel(s) : 1 channel
Sampling rate : 44.1 kHz
Compression mode : Lossy
Stream size : 49.0 MiB (7%)
Alignment : Split accross interleaves
Interleave, duration : 40 ms (1.00 video frame)
Interleave, preload duration : 500 ms

If your ratio falls below 0.3, you will not be able to download Torrents! More about the rating.

[erzsebet.pl].t256.torrent
Torrent: Registered [ 2017-12-02 16:22 ] · AB1CFDDAB8008A96234179788CDD766842DA659C

Download .torrent

Download

14 KB

Status: checked
Completed: 16 times
Size: 682 MB
terms.php
[Profile] [PM]
Display posts:    
Reply to topic

Current time is: 23-Jan 22:31

All times are UTC ± 0



You cannot post new topics in this forum
You cannot reply to topics in this forum
You cannot edit your posts in this forum
You cannot delete your posts in this forum
You cannot vote in polls in this forum
You cannot attach files in this forum
You can download files in this forum