Мой дворецкий Годфри / My Man Godfrey (Генри Костер / Henry Koster) [1957, США, романтическая комедия, DVDRip] VO + Original Eng

Reply to topic
DL-List and Torrent activity
Size:  783 MB   |    Registered:  3 years 1 month   |    Completed:  16 times

Seeder not seen: 3 years 1 month

 
   
 
 
Author Message

erzsebet.org ®

Longevity: 3 years 1 month

Posts: 47596

Post 02-Dec-2017 16:21

[Quote]

Мой дворецкий Годфри / My Man GodfreyПроект посвящен 100-летию Джун Эллисон(7 октября 1917 – 8 июля 2006) Страна: США
Студия: Universal International Pictures (UI or U-I)
Жанр: романтическая комедия
Год выпуска: 1957
Продолжительность: 01:32:29
Перевод: Одноголосый закадровый - Юрий Медведев
Субтитры: нет
Оригинальная аудиодорожка: английский
Режиссер: Генри Костер / Henry Koster
Композитор: Фрэнк Скиннер / Frank Skinner
В ролях: Джун Эллисон / June Allyson ... Irene Bullock
Дэвид Нивен / David Niven ... Godfrey
Джесси Ройс Лэндис / Jessie Royce Landis ... Angelica Bullock
Роберт Кит / Robert Keith ... Alexander Bullock

Марта Хайер / Martha Hyer ... Cordelia Bullock
Ева Габор / Eva Gabor ... Francesca Gray
Джей Робинсон / Jay Robinson ... Vincent
Джефф Доннел / Jeff Donnell ... Molly
Херберт Андерсон / Herbert Anderson ... Hubert
Эрик Синклер / Eric Sinclair ... Brent
Фред Эсслер / Fred Essler ... Captain
Даббс Грир / Dabbs Greer ... Lieutenant O'Connor

Описание: Эксцентричное семейство Буллок каждый год устраивает соревнование, одной из целей которого является найти какое-нибудь животное. Поиски приводят сестер Айрин и Корделию на мусорную свалку, где они встречают загадочного человека по имени Годфри (чья фамилия тоже Годфри), который выглядит как бродяга, но обладает изысканными манерами. Айрин приглашает незнакомца в свой дом и выигрывает с его помощью соревнование. Затем она предлагает Годфри занять должность дворецкого. Невзирая на протесты разозленной поражением Корделии и первоначальное недовольство отца семейства, Айрин добивается чтобы новый дворецкий, который ей очень понравился, остался в доме. В отличие от других дворецких, которые у Буллоков надолго не задерживались, Годфри с легкостью принимает причудливые порядки, царящие в доме, и безупречно справляется со своими обязанностями, продолжая уходить от вопросов о своем прошлом. Между тем ему есть что скрывать...
Золотой глобус, 1958 год
Номинации (1):
Лучшая мужская роль (комедия или мюзикл) (Дэвид Нивен)

Дополнительная информация

- «Мой дворецкий Годфри» — ремейк фильма «Мой слуга Годфри» 1936 года.
- Фильм должен был ознаменовать голливудский дебют немецкого актёра O.В. Фишера, но он был уволен за две недели до начала съёмок, после чего подал иск в суд на Universal.
--Фильмография Дэвида Нивена--БОЛЬШОЕ СПАСИБО:
Работа со звуком и реавторинг DVD - AlekceyR76
Перевод и озвучивание фильма - Юрий Медведев
Также Большое Спасибо всем, кто принял участие в появлении перевода и озвучки к этому фильму:
Lafajet, Магда, jasenka, елена 22, yanaelisa, old76, Ugo927, surzhoks, HippopotamusIV, cementit, voostorg, sindzi, leoder, spartakeynoir, mangust1
--Сэмпл: https://www.sendspace.com/file/c1l1jr
Качество видео: DVDRip
Формат видео: AVI
Видео: XviD, 672x288 (2.33:1), 23.976 fps, 919 Kbps
Аудио 1: MP3, 48.0 KHz, 2 ch., 128 Kbps (русский одноголосый закадровый перевод) - Юрий Медведев
Аудио 2: MP3, 48.0 KHz, 2 ch., 128 Kbps (оригинальная английская звуковая дорожка, лежит отдельно)
Как подключить альтернативную (внешнюю) звуковую дорожку к видео при просмотре?
Как добавить отдельно лежащую аудиодорожку в .avi - файл? (см. "Программы для работы с контейнерами" - > "VirtualDub" или "AVI-Mux")

MediaInfo

AVI-файл:
Общее
Полное имя : R:\РАЗДАЧИ\РИПЫ\My Man Godfrey 1957 700MB\My Man Godfrey.avi
Формат : AVI
Формат/Информация : Audio Video Interleave
Размер файла : 699 Мбайт
Продолжительность : 1 ч. 32 м.
Общий поток : 1056 Кбит/сек
Программа кодирования : VirtualDubMod 1.5.10.3 | www.virtualdub-fr.org || (build 2550/release)
Библиотека кодирования : VirtualDubMod build 2550/release
Видео
Идентификатор : 0
Формат : MPEG-4 Visual
Профиль формата : Advanced [email protected]
Параметр BVOP формата : 2
Параметр QPel формата : Нет
Параметр GMC формата : Без точки перехода
Параметр матрицы формата : Default (H.263)
Идентификатор кодека : DX50
Идентификатор кодека/Подсказка : DivX 5
Продолжительность : 1 ч. 32 м.
Битрейт : 919 Кбит/сек
Ширина : 672 пикселя
Высота : 288 пикселей
Соотношение сторон : 2,35:1
Частота кадров : 23,976 (24000/1001) кадра/сек
Цветовое пространство : YUV
Субдискретизация насыщенности : 4:2:0
Битовая глубина : 8 бит
Тип развёртки : Прогрессивная
Метод сжатия : С потерями
Бит/(Пиксели*Кадры) : 0.198
Размер потока : 608 Мбайт (87%)
Библиотека кодирования : XviD 73
Аудио
Идентификатор : 1
Формат : MPEG Audio
Версия формата : Version 1
Профиль формата : Layer 3
Идентификатор кодека : 55
Идентификатор кодека/Подсказка : MP3
Продолжительность : 1 ч. 32 м.
Вид битрейта : Постоянный
Битрейт : 128 Кбит/сек
Каналы : 2 канала
Частота : 48,0 КГц
Метод сжатия : С потерями
Размер потока : 84,7 Мбайт (12%)
Выравнивание : Соединение по промежуткам
Продолжительность промежутка : 42 мс. (1,00 видеокадр)
Время предзагрузки промежутка : 504 мс.
Библиотека кодирования : LAME3.99r
Настройки программы : -m s -V 4 -q 0 -lowpass 17 -b 128
английская оригинальная звуковая дорожка, лежит отдельно:
Общее
Полное имя : R:\РАЗДАЧИ\РИПЫ\My Man Godfrey 1957 700MB\My Man Godfrey.ENG.mp3
Формат : MPEG Audio
Размер файла : 84,7 Мбайт
Продолжительность : 1 ч. 32 м.
Режим общего битрейта : Постоянный
Общий поток : 128 Кбит/сек
Библиотека кодирования : LAME3.99r
Аудио
Формат : MPEG Audio
Версия формата : Version 1
Профиль формата : Layer 3
Продолжительность : 1 ч. 32 м.
Вид битрейта : Постоянный
Битрейт : 128 Кбит/сек
Каналы : 2 канала
Частота : 48,0 КГц
Метод сжатия : С потерями
Размер потока : 84,7 Мбайт (100%)
Библиотека кодирования : LAME3.99r
Настройки программы : -m s -V 4 -q 0 -lowpass 17 -b 128

If your ratio falls below 0.3, you will not be able to download Torrents! More about the rating.

[erzsebet.pl].t264.torrent
Torrent: Registered [ 2017-12-02 16:22 ] · C6067F5DD20DD411BEA6675A6461E7D7CB43D8B6

Download .torrent

Download

16 KB

Status: checked
Completed: 16 times
Size: 783 MB
terms.php
[Profile] [PM]
Display posts:    
Reply to topic

Current time is: 22-Jan 07:07

All times are UTC ± 0



You cannot post new topics in this forum
You cannot reply to topics in this forum
You cannot edit your posts in this forum
You cannot delete your posts in this forum
You cannot vote in polls in this forum
You cannot attach files in this forum
You can download files in this forum