Любимый спорт мужчин? / Man's Favorite Sport? (Хоуард Хоукс / Howard Hawks) [1964, США, мелодрама, комедия, WEB-DLRip] MVO

Reply to topic
DL-List and Torrent activity
Size:  1.46 GB   |    Registered:  3 years 1 month   |    Completed:  16 times

Seeder not seen: 3 years 1 month

 
   
 
 
Author Message

erzsebet.org ®

Longevity: 3 years 1 month

Posts: 47596

Post 02-Dec-2017 16:21

[Quote]

Любимый спорт мужчин? / Man's Favorite Sport?
Страна: США
Жанр: мелодрама, комедия
Год выпуска: 1964
Продолжительность: 02:00:07
Перевод: Профессиональный (многоголосый закадровый)
Субтитры: нет
Оригинальная аудиодорожка: нет-Режиссер:
Хоуард Хоукс / Howard Hawks-В ролях:
Рок Хадсон, Пола Прентисс, Мария Перши, Джон МакГайвер, Шарлин Холт, Роско Карнс, Джеймс Уэстерфилд, Норман Элден, Форрест Льюис, Режис Туми-Описание:
Роджер Уиллоуби работает в магазине спортивных товаров и является автором хорошо продаваемого самоучителя по рыбной ловле. Роджеру удалось написать этот бестселлер, ни разу не побывав на рыбалке. Но однажды настойчивая, если не сказать настырная, девушка по имени Эбби вовлекает Роджера в соревнование рыбаков, а такому «профессионалу» негоже их проигрывать…-Качество видео: WEB-DLRip | MNS_FVRT_SPRT_(1964)_AMZN_WEB-DL_1080P -BLUEBIRD
Формат видео: AVI
Видео: 720x384 (1.88:1), 23.976 fps, XviD build 73 ~1533 kbps avg, 0.23 bit/pixel
Аудио: 48 kHz, AC3 Dolby Digital, 2/0 (L,R) ch, ~192 kbps-Скачать сэмпл-

MediaInfo

Код:Format : AVI
Format/Info : Audio Video Interleave
File size : 1.46 GiB
Duration : 2 h 0 min
Overall bit rate : 1 735 kb/s
Writing application : VirtualDubMod 1.5.10.3 | www.virtualdub-fr.org || (build 2550/release)
Writing library : VirtualDubMod build 2550/release
Video
ID : 0
Format : MPEG-4 Visual
Format profile : Advanced [email protected]
Format settings, BVOP : 1
Format settings, QPel : No
Format settings, GMC : No warppoints
Format settings, Matrix : Custom
Codec ID : XVID
Codec ID/Hint : XviD
Duration : 2 h 0 min
Bit rate : 1 534 kb/s
Width : 720 pixels
Height : 384 pixels
Display aspect ratio : 1.85:1
Frame rate : 23.976 (24000/1001) FPS
Color space : YUV
Chroma subsampling : 4:2:0
Bit depth : 8 bits
Scan type : Progressive
Compression mode : Lossy
Bits/(Pixel*Frame) : 0.231
Stream size : 1.29 GiB (88%)
Writing library : XviD 73
Audio
ID : 1
Format : AC-3
Format/Info : Audio Coding 3
Format settings, Endianness : Big
Codec ID : 2000
Duration : 2 h 0 min
Bit rate mode : Constant
Bit rate : 192 kb/s
Channel(s) : 2 channels
Channel positions : Front: L R
Sampling rate : 48.0 kHz
Frame rate : 31.250 FPS (1536 spf)
Bit depth : 16 bits
Compression mode : Lossy
Stream size : 165 MiB (11%)
Alignment : Split accross interleaves
Interleave, duration : 42 ms (1.00 video frame)
Interleave, preload duratio : 500 ms
Service kind : Complete Main

Скриншоты

If your ratio falls below 0.3, you will not be able to download Torrents! More about the rating.

[erzsebet.pl].t266.torrent
Torrent: Registered [ 2017-12-02 16:22 ] · 2CEF9005D74DC95705B13EBF0938258CDC2DACB3

Download .torrent

Download

15 KB

Status: checked
Completed: 16 times
Size: 1.46 GB
terms.php
[Profile] [PM]
Display posts:    
Reply to topic

Current time is: 21-Jan 17:27

All times are UTC ± 0



You cannot post new topics in this forum
You cannot reply to topics in this forum
You cannot edit your posts in this forum
You cannot delete your posts in this forum
You cannot vote in polls in this forum
You cannot attach files in this forum
You can download files in this forum