Дни любви / Giorni d'amore (Джузеппе Де Сантис / Giuseppe De Santis, Леопольдо Савона / Leopoldo Savona) [1954, Франция, Италия, драма, комедия, Screener] [Советская прокатная копия] Dub (Мосфильм)

Reply to topic
DL-List and Torrent activity
Size:  1.45 GB   |    Registered:  3 years 1 month   |    Completed:  16 times

Seeder not seen: 3 years 1 month

 
   
 
 
Author Message

erzsebet.org ®

Longevity: 3 years 1 month

Posts: 47596

Post 02-Dec-2017 16:21

[Quote]

Дни любви / Giorni d'amore [Советская прокатная копия]- Страна: Франция, Италия
Жанр: драма, комедия
Год выпуска: 1954
Продолжительность: 01:25:08-Перевод: Профессиональный (дублированный) - Киностудия "Мосфильм"
Субтитры: нет-Режиссеры: Джузеппе Де Сантис / Giuseppe De Santis, Леопольдо Савона / Leopoldo Savona
В ролях: Марчелло Мастроянни, Марина Влади, Джулио Кали, Анджелина Лонгобарди, Дора Скарпетта, Фернандо Джаковолта, Ренато Кьянтони, Люсьен Галлас, Косимо Поэрио, Пина Галлини...- | Релиз: -Описание: Двое влюбленных: Паскуале и Анжела уже несколько лет хотят пожениться. Но для того, чтобы сыграть свадьбу, нужны немалые деньги, а их просто нет. Паскуале решает пойти на уловку. Влюбленные решают инсценировать свой побег из деревни с целью тайного венчания, после которого свадьбу не надо будет играть. И деньги будут целы — и влюбленные довольны. Семьи соглашаются на эту аферу. Но жизнь вносит свои коррективы и не все проходит так гладко…-Семпл: http://sendfile.su/1359416-Тип релиза: Screener
Контейнер: AVI
Видео: 640x480 (1.33:1), 25 fps, XviD build 50 ~1940 kbps avg, 0.25 bit/pixel
Аудио: Русский, 48 kHz, AC3 Dolby Digital, 2/0 (L,R) ch, ~256 kbps

MediaInfo

General
Complete name : Дни любви 1954 Dub Мосфильм.avi
Format : AVI
Format/Info : Audio Video Interleave
File size : 1.45 GiB
Duration : 1 h 34 min
Overall bit rate : 2 206 kb/s
Writing application : VirtualDubMod 1.5.10.2 (build 2542/release)
Writing library : VirtualDubMod build 2542/release
Video
ID : 0
Format : MPEG-4 Visual
Format settings, BVOP : 1
Format settings, QPel : No
Format settings, GMC : No warppoints
Format settings, Matrix : Default (H.263)
Codec ID : XVID
Codec ID/Hint : XviD
Duration : 1 h 34 min
Bit rate : 1 941 kb/s
Nominal bit rate : 4 854 kb/s
Width : 640 pixels
Height : 480 pixels
Display aspect ratio : 4:3
Frame rate : 25.000 FPS
Color space : YUV
Chroma subsampling : 4:2:0
Bit depth : 8 bits
Scan type : Progressive
Compression mode : Lossy
Bits/(Pixel*Frame) : 0.253
Stream size : 1.28 GiB (88%)
Writing library : XviD 1.2.1 (UTC 2008-12-04)
Audio
ID : 1
Format : AC-3
Format/Info : Audio Coding 3
Format settings, Endianness : Big
Codec ID : 2000
Duration : 1 h 34 min
Bit rate mode : Constant
Bit rate : 256 kb/s
Channel(s) : 2 channels
Channel positions : Front: L R
Sampling rate : 48.0 kHz
Frame rate : 31.250 FPS (1536 SPF)
Bit depth : 16 bits
Compression mode : Lossy
Stream size : 172 MiB (12%)
Alignment : Split accross interleaves
Interleave, duration : 40 ms (1.00 video frame)
Interleave, preload duration : 500 ms
Service kind : Complete Main

If your ratio falls below 0.3, you will not be able to download Torrents! More about the rating.

[erzsebet.pl].t268.torrent
Torrent: Registered [ 2017-12-02 16:22 ] · 7E6256B608D82E6E068E30697ADAAA415134837F

Download .torrent

Download

15 KB

Status: checked
Completed: 16 times
Size: 1.45 GB
terms.php
[Profile] [PM]
Display posts:    
Reply to topic

Current time is: 22-Jan 07:27

All times are UTC ± 0



You cannot post new topics in this forum
You cannot reply to topics in this forum
You cannot edit your posts in this forum
You cannot delete your posts in this forum
You cannot vote in polls in this forum
You cannot attach files in this forum
You can download files in this forum