Мужчина и женщина / Un homme et une femme (Клод Лелуш / Claude Lelouch) [1966, Франция, мелодрама, драма, VHSRip] [Советская прокатная копия] Dub (Мосфильм)

Reply to topic
DL-List and Torrent activity
Size:  3.34 GB   |    Registered:  3 years 1 month   |    Completed:  16 times

Seeder not seen: 3 years 1 month

 
   
 
 
Author Message

erzsebet.org ®

Longevity: 3 years 1 month

Posts: 47596

Post 02-Dec-2017 16:21

[Quote]

Мужчина и женщина / Un homme et une femme [Советская прокатная копия]- Страна: Франция
Жанр: мелодрама, драма
Год выпуска: 1966
Продолжительность: 01:36:31-Перевод: Профессиональный (дублированный) - Киностудия "Мосфильм"
Субтитры: нет-Режиссер: Клод Лелуш / Claude Lelouch
В ролях: Анук Эме, Жан-Луи Трентиньян, Пьер Бару, Суад Амиду, Поль Ле Персон, Симона Пари, Яна Бэрри, Жерар Сир, Валери Лагранж- | Релиз: -Описание: Фильм о любви между молодой вдовой Анной Готье, чей муж, каскадер, погиб во время съёмок фильма, и Жаном-Луи Дюроком, профессиональным автогонщиком, тоже вдовцом. Его жена покончила с собой, узнав, что он попал в аварию во время гонок.-Семпл: http://sendfile.su/1357538-Тип релиза: VHSRip
Контейнер: MPG
Видео: 720x576 (4:3) @ 768x576, 25.000 fps, MPEG-2 Video, ~4597 Kbps, 0.443 bits/pixel
Аудио: Русский, 48.0 KHz, AC3, 2 ch, 256 Kbps

MediaInfo

General
Complete name : Мужчина и женщина 1966 Dub Мосфильм.mpg
Format : MPEG-PS
File size : 3.34 GiB
Duration : 1 h 36 min
Overall bit rate mode : Variable
Overall bit rate : 4 951 kb/s
Video
ID : 224 (0xE0)
Format : MPEG Video
Format version : Version 2
Format profile : [email protected]
Format settings, BVOP : Yes
Format settings, Matrix : Custom
Format settings, GOP : M=3, N=12
Format settings, picture structure : Frame
Duration : 1 h 36 min
Bit rate mode : Variable
Bit rate : 4 597 kb/s
Maximum bit rate : 10 000 kb/s
Width : 720 pixels
Height : 576 pixels
Display aspect ratio : 4:3
Frame rate : 25.000 FPS
Standard : PAL
Color space : YUV
Chroma subsampling : 4:2:0
Bit depth : 8 bits
Scan type : Interlaced
Scan order : Top Field First
Compression mode : Lossy
Bits/(Pixel*Frame) : 0.443
Time code of first frame : 00:00:00:00
Time code source : Group of pictures header
GOP, Open/Closed : Open
GOP, Open/Closed of first frame : Closed
Stream size : 3.10 GiB (93%)
Audio
ID : 189 (0xBD)-128 (0x80)
Format : AC-3
Format/Info : Audio Coding 3
Format settings, Endianness : Big
Muxing mode : DVD-Video
Duration : 1 h 36 min
Bit rate mode : Constant
Bit rate : 256 kb/s
Channel(s) : 2 channels
Channel positions : Front: L R
Sampling rate : 48.0 kHz
Frame rate : 31.250 FPS (1536 SPF)
Bit depth : 16 bits
Compression mode : Lossy
Stream size : 177 MiB (5%)
Service kind : Complete Main

If your ratio falls below 0.3, you will not be able to download Torrents! More about the rating.

[erzsebet.pl].t302.torrent
Torrent: Registered [ 2017-12-02 16:22 ] · 9654E80E32596D8B03C08999C50EB2DFB97A010E

Download .torrent

Download

17 KB

Status: checked
Completed: 16 times
Size: 3.34 GB
terms.php
[Profile] [PM]
Display posts:    
Reply to topic

Current time is: 24-Jan 14:39

All times are UTC ± 0



You cannot post new topics in this forum
You cannot reply to topics in this forum
You cannot edit your posts in this forum
You cannot delete your posts in this forum
You cannot vote in polls in this forum
You cannot attach files in this forum
You can download files in this forum