Визит инспектора / An Inspector Calls (Гай Гамильтон / Guy Hamilton) [1954, Великобритания, детектив, драма, Screener] [Советская прокатная копия] Dub (Горького)

Reply to topic
DL-List and Torrent activity
Size:  1.37 GB   |    Registered:  3 years 1 month   |    Completed:  16 times

Seeder not seen: 3 years 1 month

 
   
 
 
Author Message

erzsebet.org ®

Longevity: 3 years 1 month

Posts: 47596

Post 02-Dec-2017 16:21

[Quote]

Визит инспектора / An Inspector Calls [Советская прокатная копия]- Страна: Великобритания
Жанр: детектив, драма
Год выпуска: 1954
Продолжительность: 01:16:31-Перевод: Профессиональный (дублированный) - Киностудия им. М. Горького
Субтитры: нет-Режиссер: Гай Гамильтон / Guy Hamilton
В ролях: Аластер Сим, Джейн Венхам, Брайан Ворф, Эйлин Мур, Ольга Линдо, Артур Янг, Брайан Форбс, Норман Бёрд, Чарльз Сейнор, Олуэн Брукс...- | Релиз: -Описание: Экранизация классической пьесы Дж. Пристли, признанный камерный шедевр английского послевоенного кинематографа.
В богатый дом преуспевающего и довольного собой промышленника с семейством входит старик с пронзительным взглядом - полицейский инспектор c вестью о смерти никому не известной бедной девушки. Недоумение хозяина и домочадцев вскоре сменится смятением и отчаянием.
То, что сперва может показаться старомодной и весьма условной социальной драмой, неожиданно оборачивается и до сего дня захватывающим острым взглядом на природу человеческого существа, его готовность забывать и способность вспомнить и осознать свои грехи.-Семпл: http://sendfile.su/1357367-Тип релиза: Screener
Контейнер: AVI
Видео: 720x576 (1.25:1), 25 fps, XviD build 53 ~2295 kbps avg, 0.22 bit/pixel
Аудио: Русский, 48 kHz, AC3 Dolby Digital, 2/0 (L,R) ch, ~256 kbps

MediaInfo

General
Complete name : Визит инспектора 1954 Dub Горького.avi
Format : AVI
Format/Info : Audio Video Interleave
File size : 1.37 GiB
Duration : 1 h 16 min
Overall bit rate : 2 562 kb/s
Video
ID : 0
Format : MPEG-4 Visual
Format profile : Advanced [email protected]
Format settings, BVOP : 2
Format settings, QPel : No
Format settings, GMC : No warppoints
Format settings, Matrix : Default (H.263)
Codec ID : XVID
Codec ID/Hint : XviD
Duration : 1 h 16 min
Bit rate : 2 296 kb/s
Width : 720 pixels
Height : 576 pixels
Display aspect ratio : 5:4
Frame rate : 25.000 FPS
Standard : PAL
Color space : YUV
Chroma subsampling : 4:2:0
Bit depth : 8 bits
Scan type : Progressive
Compression mode : Lossy
Bits/(Pixel*Frame) : 0.221
Stream size : 1.23 GiB (90%)
Writing library : XviD 53
Audio
ID : 1
Format : AC-3
Format/Info : Audio Coding 3
Format settings, Endianness : Big
Codec ID : 2000
Duration : 1 h 16 min
Bit rate mode : Constant
Bit rate : 256 kb/s
Channel(s) : 2 channels
Channel positions : Front: L R
Sampling rate : 48.0 kHz
Frame rate : 31.250 FPS (1536 SPF)
Bit depth : 16 bits
Compression mode : Lossy
Stream size : 140 MiB (10%)
Alignment : Split accross interleaves
Interleave, duration : 40 ms (1.00 video frame)
Interleave, preload duration : 500 ms
Service kind : Complete Main

If your ratio falls below 0.3, you will not be able to download Torrents! More about the rating.

[erzsebet.pl].t304.torrent
Torrent: Registered [ 2017-12-02 16:22 ] · F961E2E1D0D6DD2D10F3190180D14940E2E58F11

Download .torrent

Download

14 KB

Status: checked
Completed: 16 times
Size: 1.37 GB
terms.php
[Profile] [PM]
Display posts:    
Reply to topic

Current time is: 17-Jan 19:11

All times are UTC ± 0



You cannot post new topics in this forum
You cannot reply to topics in this forum
You cannot edit your posts in this forum
You cannot delete your posts in this forum
You cannot vote in polls in this forum
You cannot attach files in this forum
You can download files in this forum