Мулен Руж / Moulin Rouge (Джон Хьюстон / John Huston) [1952, Великобритания, музыкальная драма, мелодрама, биографический, Telesync > DVD] [Советская прокатная копия] Dub (Ленфильм)

Reply to topic
DL-List and Torrent activity
Size:  3.88 GB   |    Registered:  3 years 1 month   |    Completed:  16 times

Seeder not seen: 3 years 1 month

 
   
 
 
Author Message

erzsebet.org ®

Longevity: 3 years 1 month

Posts: 47596

Post 02-Dec-2017 16:21

[Quote]

Мулен Руж / Moulin Rouge[Советская прокатная копия]- Страна: Великобритания
Жанр: музыкальная драма, мелодрама, биографический
Год выпуска: 1952
Продолжительность: 01:36:01-Перевод: Профессиональный (дублированный) - Киностудия "Ленфильм"
Субтитры: нет-Режиссер: Джон Хьюстон / John Huston
В ролях: Хосе Феррер, За За Габор, Колетт Маршан, Питер Кашинг, Кристофер Ли, Морин Свонсон, Сюзан Флон, Клод Нолье, Катрин Кат, Мюриэл Смит...- | Релиз: -Описание: Фильм по одноименному роману Пьера Ла Мюра.
Париж конца 19-го века. Молодой художник Анри Тулуз-Лотрек проводит целые дни в "злачном месте" - кафе "Мулен Руж", рисуя девушек, танцующих канкан. Но, несмотря на богатство и принадлежность к старинному графскому роду, Анри глубоко несчастлив. Он - калека, и лишь в объятиях уличной проститутки Мари забывает об этом. Но вскоре Анри понимает, что Мари интересуют только его деньги. Пытаясь облегчить свое горе, Тулуз-Лотрек рисует для кафе серию афиш. Наутро он просыпается знаменитым, а "Мулен Руж" навсегда входит в историю...-Семпл: http://sendfile.su/1357360-Тип релиза: Telesync
Контейнер: DVD-Video
Видео: 704x576 (4:3), 25.000 fps, MPEG-2 Video, ~5358 Kbps, 0.529 bits/pixel
Аудио: Русский, 48.0 KHz, AC3, 2 ch, 256 Kbps

DVDInfo

Title: Мулен Руж 1952 Dub Ленфильм
Size: 3.88 Gb ( 4 063 558,00 KBytes ) - DVD-5
Enabled regions: 1, 2, 3, 4, 5, 6, 7, 8
VTS_01 :
Play Length: 01:36:01
Video: PAL 4:3 (704x576) VBR
Audio:
Russian, AC3, 2/0 (L,R) ch, 256 kbps, Delay 0 mSec

MediaInfo

General
Complete name : Мулен Руж 1952 Dub Ленфильм\VIDEO_TS\VTS_01_1.VOB
Format : MPEG-PS
File size : 1 024 MiB
Duration : 24 min 59 s
Overall bit rate mode : Variable
Overall bit rate : 5 728 kb/s
Video
ID : 224 (0xE0)
Format : MPEG Video
Format version : Version 2
Format profile : [email protected]
Format settings, BVOP : Yes
Format settings, Matrix : Default
Format settings, GOP : M=3, N=12
Format settings, picture structure : Frame
Duration : 24 min 59 s
Bit rate mode : Variable
Bit rate : 5 358 kb/s
Maximum bit rate : 9 579 kb/s
Width : 704 pixels
Height : 576 pixels
Display aspect ratio : 4:3
Frame rate : 25.000 FPS
Standard : PAL
Color space : YUV
Chroma subsampling : 4:2:0
Bit depth : 8 bits
Scan type : Interlaced
Scan order : Top Field First
Compression mode : Lossy
Bits/(Pixel*Frame) : 0.529
Time code of first frame : 00:00:00:00
Time code source : Group of pictures header
GOP, Open/Closed : Open
GOP, Open/Closed of first frame : Closed
Stream size : 958 MiB (94%)
Color primaries : BT.601 PAL
Transfer characteristics : BT.470 System B, BT.470 System G
Matrix coefficients : BT.470 System B, BT.470 System G
Audio
ID : 189 (0xBD)-128 (0x80)
Format : AC-3
Format/Info : Audio Coding 3
Format settings, Endianness : Big
Muxing mode : DVD-Video
Duration : 24 min 59 s
Bit rate mode : Constant
Bit rate : 256 kb/s
Channel(s) : 2 channels
Channel positions : Front: L R
Sampling rate : 48.0 kHz
Frame rate : 31.250 FPS (1536 SPF)
Bit depth : 16 bits
Compression mode : Lossy
Stream size : 45.8 MiB (4%)
Service kind : Complete Main
Menu

If your ratio falls below 0.3, you will not be able to download Torrents! More about the rating.

[erzsebet.pl].t305.torrent
Torrent: Registered [ 2017-12-02 16:22 ] · DAC96D88BB4A7E3C5E60FE0F6B7DA4F115D5A81F

Download .torrent

Download

20 KB

Status: checked
Completed: 16 times
Size: 3.88 GB
terms.php
[Profile] [PM]
Display posts:    
Reply to topic

Current time is: 23-Jan 23:23

All times are UTC ± 0



You cannot post new topics in this forum
You cannot reply to topics in this forum
You cannot edit your posts in this forum
You cannot delete your posts in this forum
You cannot vote in polls in this forum
You cannot attach files in this forum
You can download files in this forum