Зеркальная война / The Looking Glass War (Фрэнк Пирсон / Frank Pierson) [1969, Великобритания, триллер, драма, DVDRip] MVO (Петербург - 5 канал)

Reply to topic
DL-List and Torrent activity
Size:  1.44 GB   |    Registered:  3 years 1 month   |    Completed:  16 times

Seeder not seen: 3 years 1 month

 
   
 
 
Author Message

erzsebet.org ®

Longevity: 3 years 1 month

Posts: 47596

Post 02-Dec-2017 16:21

[Quote]

Зеркальная война / The Looking Glass War
Страна: Великобритания
Жанр: триллер, драма
Год выпуска: 1969
Продолжительность: 01:42:52
Перевод: Профессиональный (многоголосый закадровый) / ТРК «Петербург – 5 канал»
Субтитры: нет
Оригинальная аудиодорожка: нет
Режиссер: Фрэнк Пирсон / Frank Pierson
В ролях: Кристофер Джонс (Christopher Jones / Leiser), Пиа Дегермарк (Pia Degermark / The Girl), Ральф Ричардсон (Ralph Richardson / LeClerc), Пол Роджерс (Paul Rogers / Haldane), Энтони Хопкинс (Anthony Hopkins / John Avery), Сьюзен Джордж (Susan George / Susan), Рэй МакЭнэлли (Ray McAnally / Undersecretary of State), Роберт Эркарт (Robert Urquhart / Johnson), Анна Мэсси (Anna Massey / Avery’s Wife), Вивиан Пиклз (Vivian Pickles / Mrs. King), Максин Одли (Maxine Audley / Mrs. LeClerc), Сирил Шэпс (Cyril Shaps / East German Detective), Майкл Роббинс (Michael Robbins / Truck Driver), Тимоти Уэст (Timothy West / Taylor), Фредерик Джагер (Frederick Jaeger / The Pilot), Гай Деги (Guy Deghy / Fritsche), Сильва Лангова (Sylva Langova / East German Woman) и другие.
Описание: Молодой поляк сбежал с корабля, чтобы попросить политического убежища в Великобритании. Британская разведка взамен предлагает ему съездить в Восточную Германию для проверки подлинности одного фотоснимка, запечатлевшего советскую ракету. Став участником сложной операции, шпион-дебютант вскоре понимает, что является всего лишь марионеткой в шпионской игре…
Доп. информация: За видео спасибо edich2. За аудиодорожку спасибо Hel_ka67.

Сэмпл: Здесь
Качество видео: DVDRip (Видео отсюда)
Формат видео: AVI
Видео: XviD, 720x304 (2,35:1) / 25,000 fps / 1800 kbps / 0,329 bit/pixel
Аудио: Russian: AC3 2/0 (L, R) ch, 192 kbps, 48 kHz, 16 bit / многоголосый (ТРК «Петербург – 5 канал»)

MediaInfo

Общее
Полное имя : F:\Папка для скачиваний в erzsebet.org\The.Looking.Glass.War_DVDRip.XviD.MVO(ac3).avi
Формат : AVI
Формат/Информация : Audio Video Interleave
Размер файла : 1,44 Гбайт
Продолжительность : 1 ч. 42 м.
Общий поток : 2002 Кбит/сек
Программа кодирования : VirtualDubMod 1.5.10.2 (build 2540/release)
Библиотека кодирования : VirtualDubMod build 2540/release
Видео
Идентификатор : 0
Формат : MPEG-4 Visual
Профиль формата : Advanced [email protected]
Параметр BVOP формата : 2
Параметр QPel формата : Нет
Параметр GMC формата : Без точки перехода
Параметр матрицы формата : Выборочная
Идентификатор кодека : XVID
Идентификатор кодека/Подсказка : XviD
Продолжительность : 1 ч. 42 м.
Битрейт : 1800 Кбит/сек
Ширина : 720 пикселей
Высота : 304 пикселя
Соотношение сторон : 2,35:1
Частота кадров : 25,000 кадров/сек
Цветовое пространство : YUV
Субдискретизация насыщенности : 4:2:0
Битовая глубина : 8 бит
Тип развёртки : Прогрессивная
Метод сжатия : С потерями
Бит/(Пиксели*Кадры) : 0.329
Размер потока : 1,29 Гбайт (90%)
Библиотека кодирования : XviD 1.2.1 (UTC 2008-12-04)
Аудио
Идентификатор : 1
Формат : AC-3
Формат/Информация : Audio Coding 3
Расширение режима : CM (complete main)
Параметр Endianness формата : Big
Идентификатор кодека : 2000
Продолжительность : 1 ч. 42 м.
Вид битрейта : Постоянный
Битрейт : 192 Кбит/сек
Каналы : 2 канала
Расположение каналов : Front: L R
Частота : 48,0 КГц
Битовая глубина : 16 бит
Метод сжатия : С потерями
Размер потока : 141 Мбайт (10%)
Выравнивание : Разделение по промежуткам
Продолжительность промежутка : 40 мс. (1,00 видеокадр)
Время предзагрузки промежутка : 500 мс.
Заголовок : MVO (ТРК Петербург - 5 канал)

Скриншот c названием фильма

Скриншоты

If your ratio falls below 0.3, you will not be able to download Torrents! More about the rating.

[erzsebet.pl].t307.torrent
Torrent: Registered [ 2017-12-02 16:22 ] · 6172B13A320E72EC34AEE728E5CA8FC77EBBE0F7

Download .torrent

Download

15 KB

Status: checked
Completed: 16 times
Size: 1.44 GB
terms.php
[Profile] [PM]
Display posts:    
Reply to topic

Current time is: 17-Jan 02:07

All times are UTC ± 0



You cannot post new topics in this forum
You cannot reply to topics in this forum
You cannot edit your posts in this forum
You cannot delete your posts in this forum
You cannot vote in polls in this forum
You cannot attach files in this forum
You can download files in this forum