Большой Джек / Big Jack (Ричард Торп / Richard Thorpe) [1949, США, вестерн, DVDRip] VO + Original Eng

Reply to topic
DL-List and Torrent activity
Size:  1.46 GB   |    Registered:  3 years 1 month   |    Completed:  16 times

Seeder not seen: 3 years 1 month

 
   
 
 
Author Message

erzsebet.org ®

Longevity: 3 years 1 month

Posts: 47596

Post 02-Dec-2017 16:21

[Quote]

Большой Джек / Big Jack
Страна: США
Студия: Metro-Goldwyn-Mayer (MGM)
Жанр: вестерн
Год выпуска: 1949
Продолжительность: 01:24:58
Перевод: Одноголосый закадровый - Алексей Багичев
Субтитры: нет
Оригинальная аудиодорожка: английский
Режиссер: Ричард Торп / Richard Thorpe
Композитор: Херберт Стотхарт / Herbert Stothart
В ролях: Уоллес Бири / Wallace Beery ... Big Jack Horner
Ричард Конте / Richard Conte ... Dr. Alexander Meade
Марджори Майн / Marjorie Main ... Flapjack Kate
Эдвард Арнольд / Edward Arnold ... Mayor Mahoney
Ванесса Браун / Vanessa Brown ... Patricia Mahoney
Клинтон Сандберг / Clinton Sundberg ... C. Petronius Smith
Чарльз Дингл / Charles Dingle ... Mathias Taylor
Клем Беванс / Clem Bevans ... Saltlick Joe
Джек Ламберт / Jack Lambert ... Bud Valentine
Уилл Райт / Will Wright ... Will Farnsworth
Уильям «Билл» Филлипс / William «Bill» Phillips (в титрах: Wm. «Bill» Phillips) ... Toddy
Сид Сэйлор / Syd Saylor ... Pokey
Ричард Александр / Richard Alexander ... Bandit, в титрах не указан
Тревор Бардетт / Trevor Bardette ... John Oakes, в титрах не указан
Винс Барнетт / Vince Barnett ... Tom Speed, в титрах не указан

Описание: В 1802 году в глухой части штата Мэриленд молодой врач Александр Мид приговорён к повешению за похищение трупов для проведения своих медицинских экспериментов. Члены банды Большого Джека спасают Миду жизнь и доставляют его к своему главарю. Когда Мид вылечивает раненую ногу Большого Джека, тот привязывается к доктору. Большой Джек даже проявляет участие в медицинских экспериментах Мида, обещая ему поставлять “материал” для работы. Правда у Мида есть все основания полагать, что многие покойники покинули этот мир не по естественным причинам. Мало того, Большой Джек решил ещё устроить и личную жизнь Мида. В конце концов доктор решает сбежать от своего “благодетеля”...
Дополнительная информация:
Это последний фильм Уоллеса Бири.--БОЛЬШОЕ СПАСИБО:
Работа со звуком и реавторинг DVD - AlekceyR76
Перевод и озвучивание фильма - Алексей Багичев
Также Большое Спасибо всем, кто принял участие в появлении перевода и озвучки к этому фильму:
Магда, Lafajet, jasenka, елена 22, yanaelisa, surzhoks, voostorg, cementit, HippopotamusIV, борюська, leoder, spartakeynoir, sveta_pula
--Сэмпл: https://www.sendspace.com/file/3eu5wf
Качество видео: DVDRip
Формат видео: AVI
Видео: XviD, 640x480 (1.33:1), 23.976 fps, 2059 Kbps
Аудио 1: AC3, 48.0 KHz, 2 ch., 192 Kbps (русский одноголосый закадровый перевод) - Алексей Багичев
Аудио 2: AC3, 48.0 KHz, 2 ch., 192 Kbps (оригинальная английская звуковая дорожка)

MediaInfo

Общее
Полное имя : I:\раздачи\Big Jack 1949\Big Jack.avi
Формат : AVI
Формат/Информация : Audio Video Interleave
Размер файла : 1,46 Гбайт
Продолжительность : 1 ч. 24 м.
Общий поток : 2457 Кбит/сек
Программа кодирования : VirtualDubMod 1.5.10.3 | www.virtualdub-fr.org || (build 2550/release)
Библиотека кодирования : VirtualDubMod build 2550/release
Видео
Идентификатор : 0
Формат : MPEG-4 Visual
Профиль формата : Advanced [email protected]
Параметр BVOP формата : 2
Параметр QPel формата : Нет
Параметр GMC формата : Без точки перехода
Параметр матрицы формата : Default (H.263)
Идентификатор кодека : DX50
Идентификатор кодека/Подсказка : DivX 5
Продолжительность : 1 ч. 24 м.
Битрейт : 2059 Кбит/сек
Ширина : 640 пикселей
Высота : 480 пикселей
Соотношение сторон : 4:3
Частота кадров : 23,976 (24000/1001) кадра/сек
Цветовое пространство : YUV
Субдискретизация насыщенности : 4:2:0
Битовая глубина : 8 бит
Тип развёртки : Прогрессивная
Метод сжатия : С потерями
Бит/(Пиксели*Кадры) : 0.280
Размер потока : 1,22 Гбайт (84%)
Библиотека кодирования : XviD 73
Аудио #1
Идентификатор : 1
Формат : AC-3
Формат/Информация : Audio Coding 3
Параметр Endianness формата : Big
Идентификатор кодека : 2000
Продолжительность : 1 ч. 24 м.
Вид битрейта : Постоянный
Битрейт : 192 Кбит/сек
Каналы : 2 канала
Расположение каналов : Front: L R
Частота : 48,0 КГц
Частота кадров : 31,250 кадров/сек (1536 spf)
Битовая глубина : 16 бит
Метод сжатия : С потерями
Размер потока : 117 Мбайт (8%)
Выравнивание : Разделение по промежуткам
Продолжительность промежутка : 42 мс. (1,00 видеокадр)
Время предзагрузки промежутка : 500 мс.
ServiceKind/String : Complete Main
Аудио #2
Идентификатор : 2
Формат : AC-3
Формат/Информация : Audio Coding 3
Параметр Endianness формата : Big
Идентификатор кодека : 2000
Продолжительность : 1 ч. 24 м.
Вид битрейта : Постоянный
Битрейт : 192 Кбит/сек
Каналы : 2 канала
Расположение каналов : Front: L R
Частота : 48,0 КГц
Частота кадров : 31,250 кадров/сек (1536 spf)
Битовая глубина : 16 бит
Метод сжатия : С потерями
Размер потока : 117 Мбайт (8%)
Выравнивание : Разделение по промежуткам
Продолжительность промежутка : 42 мс. (1,00 видеокадр)
Время предзагрузки промежутка : 500 мс.
ServiceKind/String : Complete Main

If your ratio falls below 0.3, you will not be able to download Torrents! More about the rating.

[erzsebet.pl].t312.torrent
Torrent: Registered [ 2017-12-02 16:22 ] · BD34CB14B379D92BCC8F88AC77A11D6BAD0BC0AC

Download .torrent

Download

15 KB

Status: checked
Completed: 16 times
Size: 1.46 GB
terms.php
[Profile] [PM]
Display posts:    
Reply to topic

Current time is: 26-Jan 08:40

All times are UTC ± 0



You cannot post new topics in this forum
You cannot reply to topics in this forum
You cannot edit your posts in this forum
You cannot delete your posts in this forum
You cannot vote in polls in this forum
You cannot attach files in this forum
You can download files in this forum