Ватуси / Watusi (Курт Нойманн / Kurt Neumann) [1959, США, Приключения, DVDRip] MVO + Original Eng

Reply to topic
DL-List and Torrent activity
Size:  1.66 GB   |    Registered:  3 years 1 month   |    Completed:  16 times

Seeder not seen: 3 years 1 month

 
   
 
 
Author Message

erzsebet.org ®

Longevity: 3 years 1 month

Posts: 47596

Post 02-Dec-2017 16:20

[Quote]

Ватуси / Watusi
Страна: США
Жанр: Приключения
Год выпуска: 1959
Продолжительность: 01:24:50
Перевод: Профессиональный (многоголосый закадровый)
Субтитры: нет
Оригинальная аудиодорожка: английский
Режиссер: Курт Нойманн / Kurt Neumann
В ролях: Джордж Монтгомери, Тайна Элг, Дэвид Фаррар, Роберт Гудвин, Рекс Ингрэм и др.
Описание: После окончания Первой мировой войны, сын Аллана Квотермейна, Гарри прибыл в Африку чтобы по следам своего отца найти копи царя Соломона. Вместе с другом своего отца они отправляются на поиски сокровищ. Спасение прекрасной дамы, опасности, приключения ждут друзей в этом путешествии.
Доп. информация: Русская дорожка взята с раздачи: http://erzsebet.org/forum/viewtopic.php?t=1791833
Сэмпл: https://yadi.sk/i/lpDKRqEl3M9Cey
Качество видео: DVDRip
Формат видео: MKV
Видео: V_MPEG4/ISO/AVC, [email protected]х480 (16:9), 23.976, 2484 kb/s, 0.244 bit/pixel
Аудио: A_AC3, 48.0 kHz, 128 kb/s, 2 ch L R, Russian
Аудио 2: A_AC3, 48.0 kHz, 192 kb/s, 2 ch L R, English

MediaInfo

General
Complete name : /mnt/Media/VIDEO/ПРИКЛЮЧЕНИЕ/Watusi/Watusi.1959.mkv
Format : Matroska
Format version :Version 4 / Version 2
File size : 1.66 GiB
Duration : 1 h 24 min
Overall bit rate mode : Variable
Overall bit rate : 2 805 kb/s
Encoded date : UTC 2017-08-18 15:14:40
Writing application : mkvmerge v14.0.0 ('Flow') 64bit
Writing library : libebml v1.3.4 + libmatroska v1.4.5
Video
ID : 1
Format : AVC
Format/Info : Advanced Video Codec
Format profile : [email protected]
Format settings, CABAC : Yes
Format settings, ReFrames : 12 frames
Codec ID : V_MPEG4/ISO/AVC
Duration : 1 h 24 min
Bit rate mode : Variable
Bit rate : 2 484 kb/s
Maximum bit rate : 40.0 Mb/s
Width : 718 pixels
Height : 480 pixels
Display aspect ratio : 16:9
Frame rate mode : Constant
Frame rate : 23.976 (24000/1001) FPS
Color space : YUV
Chroma subsampling : 4:2:0
Bit depth : 8 bits
Scan type : Progressive
Bits/(Pixel*Frame) : 0.301
Stream size : 1.47 GiB (89%)
Default : Yes
Forced : Yes
Color range : Limited
Color primaries : BT.601 NTSC
Transfer characteristics : BT.709
Matrix coefficients : BT.601
Audio #1
ID : 2
Format : AC-3
Format/Info : Audio Coding 3
Mode extension : CM (complete main)
Format settings, Endianness : Big
Codec ID : A_AC3
Duration : 1 h 24 min
Bit rate mode : Constant
Bit rate : 128 kb/s
Channel(s) : 2 channels
Channel positions : Front: L R
Sampling rate : 48.0 kHz
Frame rate : 31.250 FPS (1536 spf)
Bit depth : 16 bits
Compression mode : Lossy
Stream size : 77.7 MiB (5%)
Title : Russian
Language : Russian
Default : Yes
Forced : Yes
Audio #2
ID : 3
Format : AC-3
Format/Info : Audio Coding 3
Mode extension : CM (complete main)
Format settings, Endianness : Big
Codec ID : A_AC3
Duration : 1 h 24 min
Bit rate mode : Constant
Bit rate : 192 kb/s
Channel(s) : 2 channels
Channel positions : Front: L R
Sampling rate : 48.0 kHz
Frame rate : 31.250 FPS (1536 spf)
Bit depth : 16 bits
Compression mode : Lossy
Stream size : 117 MiB (7%)
Title : Englisch
Language : English
Default : No
Forced : No

Скриншот c названием фильма

Скриншоты

If your ratio falls below 0.3, you will not be able to download Torrents! More about the rating.

[erzsebet.pl].t319.torrent
Torrent: Registered [ 2017-12-02 16:22 ] · 058980281C06FF7E3C470DB0BB023675512CDD54

Download .torrent

Download

34 KB

Status: checked
Completed: 16 times
Size: 1.66 GB
terms.php
[Profile] [PM]
Display posts:    
Reply to topic

Current time is: 24-Jan 16:30

All times are UTC ± 0



You cannot post new topics in this forum
You cannot reply to topics in this forum
You cannot edit your posts in this forum
You cannot delete your posts in this forum
You cannot vote in polls in this forum
You cannot attach files in this forum
You can download files in this forum